🚢 Приветствуем Вас на нашем трекере..🚢...Наш Девиз...Лучшее уже тут...☏...Присоединяйтесь...☏

Статистика раздачи | Обновить пиров
Качаю: [ 1 ]
Скачал: [ 1 ]
 
   
 
 

[Цитировать]

Scorpions - Acoustica
-Жанр: Classic Rock, Acoustic
Носитель: LP
Год выпуска: 2001, 2017
Лейбл: Sony Music ‎– 88985406981, RCA ‎– 88985406981
Страна-производитель: Germany
Аудио кодек: DSD 256
Тип рипа: image+.cue
Формат записи: 1/11.28 MHz
Формат раздачи: 1/11.28 MHz
Продолжительность: 01:40:23-Треклист:

A1 Loving You Sunday Morning
A2 Is There Anybody There
A3 The Zoo
A4 Always Somewhere
A5 Life Is Too Short
B1 Holiday
B2 You & I
B3 When Love Kills Love
B4 Tease Me, Please Me
B5 Dust In The Wind
C1 Send Me An Angel
C2 Under The Same Sun
C3 Rhythm Of Love
C4 Back To You
C5 Catch Your Train
D1 I Wanted To Cry (But The Tears Wouldn't Come)
D2 Winds Of Change
D3 Love Of My Life
D4 Drive
D5 Still Loving You
D6 Hurricane 2001
-Код класса состояния винила: Mint
Устройство воспроизведения: Yamaha GT-2000 + YOP-1 + YA-39
Головка звукоснимателя: ZYX Ultimate 100
Предварительный усилитель: Audio Note L3 V2 Phono Signature
MC Трансформатор: Lundahl LL1933 (1:16)
АЦП: RME ADI-2 PRO FS R BE
Программа-оцифровщик: Sound it! 8 Pro x64-

Содержание индексной карты (.CUE)

REM GENRE Rock
REM DATE 2001, 2017
REM COMMENT by AcidFX
PERFORMER "Scorpions"
TITLE "Scorpions - Acoustica [88985406981] 2LP]
FILE "Scorpions - Acoustica [88985406981] A1.dsf" WAVE
  TRACK 01 AUDIO
    TITLE "A1 Loving You Sunday Morning"
    INDEX 01 00:02:00
  TRACK 02 AUDIO
    TITLE "A2 Is There Anybody There"
    INDEX 01 04:39:00
  TRACK 03 AUDIO
    TITLE "A3 The Zoo"
    INDEX 01 09:03:00
  TRACK 04 AUDIO
    TITLE "A4 Always Somewhere"
    INDEX 01 14:43:00
  TRACK 05 AUDIO
    TITLE "A5 Life Is Too Short"
    INDEX 01 18:57:00
    INDEX 02 24:12:00
FILE "Scorpions - Acoustica [88985406981] B2.dsf" WAVE
  TRACK 06 AUDIO
    TITLE "B1 Holiday"
    INDEX 01 00:01:00
  TRACK 07 AUDIO
    TITLE "B2 You & I"
    INDEX 01 06:00:00
  TRACK 08 AUDIO
    TITLE "B3 When Love Kills Love"
    INDEX 01 11:19:70
  TRACK 09 AUDIO
    TITLE "B4 Tease Me, Please Me"
    INDEX 01 16:08:00
  TRACK 10 AUDIO
    TITLE "B5 Dust In The Wind"
    INDEX 01 21:09:00
    INDEX 02 24:50:00
FILE "Scorpions - Acoustica [88985406981] C3.dsf" WAVE
  TRACK 11 AUDIO
    TITLE "C1 Send Me An Angel"
    INDEX 01 00:01:00
  TRACK 12 AUDIO
    TITLE "C2 Under The Same Sun"
    INDEX 01 05:28:00
  TRACK 13 AUDIO
    TITLE "C3 Rhythm Of Love"
    INDEX 01 10:51:00
  TRACK 14 AUDIO
    TITLE "C4 Back To You"
    INDEX 01 16:14:00
  TRACK 15 AUDIO
    TITLE "C5 Catch Your Train"
    INDEX 01 21:10:00
    INDEX 02 24:55:00
FILE "Scorpions - Acoustica [88985406981] D4.dsf" WAVE
  TRACK 16 AUDIO
    TITLE "D1 I Wanted To Cry (But The Tears Wouldn't Come)"
    INDEX 01 00:00:00
  TRACK 17 AUDIO
    TITLE "D2 Winds Of Change"
    INDEX 01 03:45:00
  TRACK 18 AUDIO
    TITLE "D3 Love Of My Life"
    INDEX 01 09:22:40
  TRACK 19 AUDIO
    TITLE "D4 Drive"
    INDEX 01 11:46:20
  TRACK 20 AUDIO
    TITLE "D5 Still Loving You"
    INDEX 01 15:45:00
  TRACK 21 AUDIO
    TITLE "D6 Hurricane 2001"
    INDEX 01 21:32:00
    INDEX 02 26:08:00

DR

foobar2000 1.5.5 / Замер динамического диапазона (DR) 1.1.1
Дата отчёта:    2024-02-10 14:12:06
--------------------------------------------------------------------------------
Анализ:   Scorpions / "Scorpions - Acoustica [88985406981] 2LP]
--------------------------------------------------------------------------------
DR         Пики         RMS           Продолжительность трека
--------------------------------------------------------------------------------
DR13      -6.62 дБ   -21.44 дБ      4:37 01-A1 Loving You Sunday Morning
DR14      -6.80 дБ   -21.88 дБ      4:24 02-A2 Is There Anybody There
DR12      -7.05 дБ   -21.33 дБ      5:40 03-A3 The Zoo
DR12      -8.78 дБ   -24.08 дБ      4:14 04-A4 Always Somewhere
DR12      -7.26 дБ   -22.98 дБ      5:17 05-A5 Life Is Too Short
DR12      -6.83 дБ   -22.73 дБ      5:59 06-B1 Holiday
DR13      -7.42 дБ   -22.44 дБ      5:20 07-B2 You & I
DR12      -6.82 дБ   -22.58 дБ      4:48 08-B3 When Love Kills Love
DR13      -8.59 дБ   -23.46 дБ      5:01 09-B4 Tease Me, Please Me
DR12      -9.12 дБ   -23.11 дБ      3:53 10-B5 Dust In The Wind
DR11      -7.33 дБ   -21.21 дБ      5:27 11-C1 Send Me An Angel
DR12      -8.07 дБ   -22.92 дБ      5:23 12-C2 Under The Same Sun
DR13      -8.12 дБ   -24.22 дБ      5:23 13-C3 Rhythm Of Love
DR12      -8.94 дБ   -25.16 дБ      4:56 14-C4 Back To You
DR13      -8.10 дБ   -23.04 дБ      3:48 15-C5 Catch Your Train
DR13     -10.72 дБ   -25.96 дБ      3:45 16-D1 I Wanted To Cry (But The Tears Wouldn't Come)
DR11      -7.12 дБ   -21.51 дБ      5:38 17-D2 Winds Of Change
DR11     -10.34 дБ   -23.45 дБ      2:24 18-D3 Love Of My Life
DR12      -8.04 дБ   -23.26 дБ      3:59 19-D4 Drive
DR12      -9.03 дБ   -23.59 дБ      5:47 20-D5 Still Loving You
DR12      -8.33 дБ   -23.41 дБ      4:40 21-D6 Hurricane 2001
--------------------------------------------------------------------------------
Количество треков:  21
Реальные значения DR:  DR12
Частота:      11289600 Гц / Частота PCM:  44100 Гц
Каналов:      2
Разрядность:     1
Битрейт:      22579 кбит/с
Кодек:      DSD256
================================================================================


Показать сообщения:    

Текущее время: 05-Мар 00:19

Часовой пояс: UTC + 3


Вы не можете начинать темы
Вы не можете отвечать на сообщения
Вы не можете редактировать свои сообщения
Вы не можете удалять свои сообщения
Вы не можете голосовать в опросах
Вы не можете прикреплять файлы к сообщениям
Вы не можете скачивать файлы

!ВНИМАНИЕ!
Сайт не предоставляет электронные версии произведений, а занимается лишь коллекционированием и каталогизацией ссылок, присылаемых и публикуемых на форуме нашими читателями. Если вы являетесь правообладателем какого-либо представленного материала и не желаете, чтобы ссылка на него находилась в нашем каталоге, свяжитесь с нами, и мы незамедлительно удалим ее. Файлы для обмена на трекере предоставлены пользователями сайта, и администрация не несет ответственности за их содержание. Просьба не заливать файлы, защищенные авторскими правами, а также файлы нелегального содержания!