🚢 Приветствуем Вас на нашем трекере..🚢...Наш Девиз...Лучшее уже тут...☏...Присоединяйтесь...☏

Статистика раздачи | Обновить пиров
Нет
 
   
 
 

[Цитировать]

The Alan Parsons Project - The Turn Of A Friendly Card- Жанр: art rock, pop/rock, symphonic rock
Label: Arista - 203 000-320
Страна-производитель: Germany
Продолжительность: 00:40:31
Кодек: DSD 128
Тип рипа: tracks
Формат записи: 1/5,64 MHz
Формат раздачи: 1/5,64 MHz
-

Side 1
A1 May Be A Price To Pay 4:52
A2 Games People Play 4:17
A3 Time 5:05
A4 I Don't Wanna Go Home 4:54
Side 2
B1 The Gold Bug 4:28
The Turn Of A Friendly Card
B2i The Turn Of A Friendly Card (Part One) 2:39
B2ii Snake Eyes 3:17
B2iii The Ace Of Swords 2:58
B2iv Nothing Left To Lose 4:03
B2v The Turn Of A Friendly Card (Part Two) 3:12

Техданные

Источник оцифровки: Tuandrei
Код класса состояния винила: Ex
Устройство воспроизведения: "YAMAHA PX-2"
Фонокабель: Furutech Ag-12-L
Головка звукоснимателя: MM "Clearaudio Charisma V II"
Фонокорректор: "NG-6M" (Авторский транзисторный)
Межблочник: Самодельный
Сетевое питание: Nordost Red Dawn
АЦП: Korg MR-2000S
Программа-оцифровщик: AudioGate (разделение на треки)
Обработка: Нет (Рип как есть)

Mediainfo

Общее
Полное имя                               : E:\МУЗОН\Alan Parsons Project - The Turn Of A Friendly Card - 1980\A1 May Be A Price To Pay.dsf
Формат                                   : DSF
Формат/Информация                        : Direct Stream Digital Stream File
Версия формата                           : Version 1
Размер файла                             : 406 Мбайт
Продолжительность                        : 5 м. 1 с.
Общий поток                              : 11,3 Мбит/сек
Альбом                                   : The Turn Of A Friendly Card,(Arista-203 000-320,Germany),(CAf+NG-6)
Трек                                     : A1 May Be A Price To Pay
Исполнитель                              :  The Alan Parsons Project
Жанр                                     : Prog Rock
Дата записи                              : 1980
Библиотека кодирования                   : KORG AudioGate ver.2.2.1 (Windows 7)
Обложка                                  : Yes
MIME-тип обложки                         : image/jpeg
Аудио
Формат                                   : DSD
Формат/Информация                        : Direct Stream Digital
Коммерческое название                    : DSD128
Настройки формата                        : Little
Продолжительность                        : 5 м. 1 с.
Битрейт                                  : 11,3 Мбит/сек
Каналы                                   : 2 канала
Channel layout                           : L R
Частота                                  : 5 645 КГц
Метод сжатия                             : Без потерь
Размер потока                            : 406 Мбайт (100%)
Общее
Полное имя                               : E:\МУЗОН\Alan Parsons Project - The Turn Of A Friendly Card - 1980\A2 Games People Play.dsf
Формат                                   : DSF
Формат/Информация                        : Direct Stream Digital Stream File
Версия формата                           : Version 1
Размер файла                             : 354 Мбайт
Продолжительность                        : 4 м. 23 с.
Общий поток                              : 11,3 Мбит/сек
Альбом                                   : The Turn Of A Friendly Card,(Arista-203 000-320,Germany),(CAf+NG-6)
Трек                                     : A2 Games People Play
Исполнитель                              :  The Alan Parsons Project
Жанр                                     : Prog Rock
Дата записи                              : 1980
Библиотека кодирования                   : KORG AudioGate ver.2.2.1 (Windows 7)
Обложка                                  : Yes
MIME-тип обложки                         : image/jpeg
Аудио
Формат                                   : DSD
Формат/Информация                        : Direct Stream Digital
Коммерческое название                    : DSD128
Настройки формата                        : Little
Продолжительность                        : 4 м. 23 с.
Битрейт                                  : 11,3 Мбит/сек
Каналы                                   : 2 канала
Channel layout                           : L R
Частота                                  : 5 645 КГц
Метод сжатия                             : Без потерь
Размер потока                            : 354 Мбайт (100%)
Общее
Полное имя                               : E:\МУЗОН\Alan Parsons Project - The Turn Of A Friendly Card - 1980\A3 Time.dsf
Формат                                   : DSF
Формат/Информация                        : Direct Stream Digital Stream File
Версия формата                           : Version 1
Размер файла                             : 411 Мбайт
Продолжительность                        : 5 м. 5 с.
Общий поток                              : 11,3 Мбит/сек
Альбом                                   : The Turn Of A Friendly Card,(Arista-203 000-320,Germany),(CAf+NG-6)
Трек                                     : A3 Time
Исполнитель                              :  The Alan Parsons Project
Жанр                                     : Prog Rock
Дата записи                              : 1980
Библиотека кодирования                   : KORG AudioGate ver.2.2.1 (Windows 7)
Обложка                                  : Yes
MIME-тип обложки                         : image/jpeg
Аудио
Формат                                   : DSD
Формат/Информация                        : Direct Stream Digital
Коммерческое название                    : DSD128
Настройки формата                        : Little
Продолжительность                        : 5 м. 5 с.
Битрейт                                  : 11,3 Мбит/сек
Каналы                                   : 2 канала
Channel layout                           : L R
Частота                                  : 5 645 КГц
Метод сжатия                             : Без потерь
Размер потока                            : 411 Мбайт (100%)
Общее
Полное имя                               : E:\МУЗОН\Alan Parsons Project - The Turn Of A Friendly Card - 1980\A4 I Don't Wanna Go Home.dsf
Формат                                   : DSF
Формат/Информация                        : Direct Stream Digital Stream File
Версия формата                           : Version 1
Размер файла                             : 406 Мбайт
Продолжительность                        : 5 м. 1 с.
Общий поток                              : 11,3 Мбит/сек
Альбом                                   : The Turn Of A Friendly Card,(Arista-203 000-320,Germany),(CAf+NG-6)
Трек                                     : A4 I Don't Wanna Go Home
Исполнитель                              :  The Alan Parsons Project
Жанр                                     : Prog Rock
Дата записи                              : 1980
Библиотека кодирования                   : KORG AudioGate ver.2.2.1 (Windows 7)
Обложка                                  : Yes
MIME-тип обложки                         : image/jpeg
Аудио
Формат                                   : DSD
Формат/Информация                        : Direct Stream Digital
Коммерческое название                    : DSD128
Настройки формата                        : Little
Продолжительность                        : 5 м. 1 с.
Битрейт                                  : 11,3 Мбит/сек
Каналы                                   : 2 канала
Channel layout                           : L R
Частота                                  : 5 645 КГц
Метод сжатия                             : Без потерь
Размер потока                            : 406 Мбайт (100%)
Общее
Полное имя                               : E:\МУЗОН\Alan Parsons Project - The Turn Of A Friendly Card - 1980\B1 The Gold Bug.dsf
Формат                                   : DSF
Формат/Информация                        : Direct Stream Digital Stream File
Версия формата                           : Version 1
Размер файла                             : 370 Мбайт
Продолжительность                        : 4 м. 34 с.
Общий поток                              : 11,3 Мбит/сек
Альбом                                   : The Turn Of A Friendly Card,(Arista-203 000-320,Germany),(CAf+NG-6)
Трек                                     : B1 The Gold Bug
Исполнитель                              :  The Alan Parsons Project
Жанр                                     : Prog Rock
Дата записи                              : 1980
Библиотека кодирования                   : KORG AudioGate ver.2.2.1 (Windows 7)
Обложка                                  : Yes
MIME-тип обложки                         : image/jpeg
Аудио
Формат                                   : DSD
Формат/Информация                        : Direct Stream Digital
Коммерческое название                    : DSD128
Настройки формата                        : Little
Продолжительность                        : 4 м. 34 с.
Битрейт                                  : 11,3 Мбит/сек
Каналы                                   : 2 канала
Channel layout                           : L R
Частота                                  : 5 645 КГц
Метод сжатия                             : Без потерь
Размер потока                            : 370 Мбайт (100%)
Общее
Полное имя                               : E:\МУЗОН\Alan Parsons Project - The Turn Of A Friendly Card - 1980\B2 The Turn Of A Friendly Card (Part One).dsf
Формат                                   : DSF
Формат/Информация                        : Direct Stream Digital Stream File
Версия формата                           : Version 1
Размер файла                             : 214 Мбайт
Продолжительность                        : 2 м. 39 с.
Общий поток                              : 11,3 Мбит/сек
Альбом                                   : The Turn Of A Friendly Card,(Arista-203 000-320,Germany),(CAf+NG-6)
Трек                                     : B2 The Turn Of A Friendly Card (Part One)
Исполнитель                              :  The Alan Parsons Project
Жанр                                     : Prog Rock
Дата записи                              : 1980
Библиотека кодирования                   : KORG AudioGate ver.2.2.1 (Windows 7)
Обложка                                  : Yes
MIME-тип обложки                         : image/jpeg
Аудио
Формат                                   : DSD
Формат/Информация                        : Direct Stream Digital
Коммерческое название                    : DSD128
Настройки формата                        : Little
Продолжительность                        : 2 м. 39 с.
Битрейт                                  : 11,3 Мбит/сек
Каналы                                   : 2 канала
Channel layout                           : L R
Частота                                  : 5 645 КГц
Метод сжатия                             : Без потерь
Размер потока                            : 214 Мбайт (100%)
Общее
Полное имя                               : E:\МУЗОН\Alan Parsons Project - The Turn Of A Friendly Card - 1980\B3 Snake Eyes.dsf
Формат                                   : DSF
Формат/Информация                        : Direct Stream Digital Stream File
Версия формата                           : Version 1
Размер файла                             : 270 Мбайт
Продолжительность                        : 3 м. 20 с.
Общий поток                              : 11,3 Мбит/сек
Альбом                                   : The Turn Of A Friendly Card,(Arista-203 000-320,Germany),(CAf+NG-6)
Трек                                     : B3 Snake Eyes
Исполнитель                              :  The Alan Parsons Project
Жанр                                     : Prog Rock
Дата записи                              : 1980
Библиотека кодирования                   : KORG AudioGate ver.2.2.1 (Windows 7)
Обложка                                  : Yes
MIME-тип обложки                         : image/jpeg
Аудио
Формат                                   : DSD
Формат/Информация                        : Direct Stream Digital
Коммерческое название                    : DSD128
Настройки формата                        : Little
Продолжительность                        : 3 м. 20 с.
Битрейт                                  : 11,3 Мбит/сек
Каналы                                   : 2 канала
Channel layout                           : L R
Частота                                  : 5 645 КГц
Метод сжатия                             : Без потерь
Размер потока                            : 270 Мбайт (100%)
Общее
Полное имя                               : E:\МУЗОН\Alan Parsons Project - The Turn Of A Friendly Card - 1980\B4 The Ace Of Swords.dsf
Формат                                   : DSF
Формат/Информация                        : Direct Stream Digital Stream File
Версия формата                           : Version 1
Размер файла                             : 240 Мбайт
Продолжительность                        : 2 м. 58 с.
Общий поток                              : 11,3 Мбит/сек
Альбом                                   : The Turn Of A Friendly Card,(Arista-203 000-320,Germany),(CAf+NG-6)
Трек                                     : B4 The Ace Of Swords
Исполнитель                              :  The Alan Parsons Project
Жанр                                     : Prog Rock
Дата записи                              : 1980
Библиотека кодирования                   : KORG AudioGate ver.2.2.1 (Windows 7)
Обложка                                  : Yes
MIME-тип обложки                         : image/jpeg
Аудио
Формат                                   : DSD
Формат/Информация                        : Direct Stream Digital
Коммерческое название                    : DSD128
Настройки формата                        : Little
Продолжительность                        : 2 м. 58 с.
Битрейт                                  : 11,3 Мбит/сек
Каналы                                   : 2 канала
Channel layout                           : L R
Частота                                  : 5 645 КГц
Метод сжатия                             : Без потерь
Размер потока                            : 240 Мбайт (100%)
Общее
Полное имя                               : E:\МУЗОН\Alan Parsons Project - The Turn Of A Friendly Card - 1980\B5 Nothing Left To Lose.dsf
Формат                                   : DSF
Формат/Информация                        : Direct Stream Digital Stream File
Версия формата                           : Version 1
Размер файла                             : 332 Мбайт
Продолжительность                        : 4 м. 6 с.
Общий поток                              : 11,3 Мбит/сек
Альбом                                   : The Turn Of A Friendly Card,(Arista-203 000-320,Germany),(CAf+NG-6)
Трек                                     : B5 Nothing Left To Lose
Исполнитель                              :  The Alan Parsons Project
Жанр                                     : Prog Rock
Дата записи                              : 1980
Библиотека кодирования                   : KORG AudioGate ver.2.2.1 (Windows 7)
Обложка                                  : Yes
MIME-тип обложки                         : image/jpeg
Аудио
Формат                                   : DSD
Формат/Информация                        : Direct Stream Digital
Коммерческое название                    : DSD128
Настройки формата                        : Little
Продолжительность                        : 4 м. 6 с.
Битрейт                                  : 11,3 Мбит/сек
Каналы                                   : 2 канала
Channel layout                           : L R
Частота                                  : 5 645 КГц
Метод сжатия                             : Без потерь
Размер потока                            : 332 Мбайт (100%)
Общее
Полное имя                               : E:\МУЗОН\Alan Parsons Project - The Turn Of A Friendly Card - 1980\B6 The Turn Of A Friendly Card (Part Two).dsf
Формат                                   : DSF
Формат/Информация                        : Direct Stream Digital Stream File
Версия формата                           : Version 1
Размер файла                             : 269 Мбайт
Продолжительность                        : 3 м. 20 с.
Общий поток                              : 11,3 Мбит/сек
Альбом                                   : The Turn Of A Friendly Card,(Arista-203 000-320,Germany),(CAf+NG-6)
Трек                                     : B6 The Turn Of A Friendly Card (Part Two)
Исполнитель                              :  The Alan Parsons Project
Жанр                                     : Prog Rock
Дата записи                              : 1980
Библиотека кодирования                   : KORG AudioGate ver.2.2.1 (Windows 7)
Обложка                                  : Yes
MIME-тип обложки                         : image/jpeg
Аудио
Формат                                   : DSD
Формат/Информация                        : Direct Stream Digital
Коммерческое название                    : DSD128
Настройки формата                        : Little
Продолжительность                        : 3 м. 20 с.
Битрейт                                  : 11,3 Мбит/сек
Каналы                                   : 2 канала
Channel layout                           : L R
Частота                                  : 5 645 КГц
Метод сжатия                             : Без потерь
Размер потока                            : 269 Мбайт (100%)
- -


Показать сообщения:    

Текущее время: 21-Май 22:18

Часовой пояс: UTC + 3


Вы не можете начинать темы
Вы не можете отвечать на сообщения
Вы не можете редактировать свои сообщения
Вы не можете удалять свои сообщения
Вы не можете голосовать в опросах
Вы не можете прикреплять файлы к сообщениям
Вы не можете скачивать файлы

!ВНИМАНИЕ!
Сайт не предоставляет электронные версии произведений, а занимается лишь коллекционированием и каталогизацией ссылок, присылаемых и публикуемых на форуме нашими читателями. Если вы являетесь правообладателем какого-либо представленного материала и не желаете, чтобы ссылка на него находилась в нашем каталоге, свяжитесь с нами, и мы незамедлительно удалим ее. Файлы для обмена на трекере предоставлены пользователями сайта, и администрация не несет ответственности за их содержание. Просьба не заливать файлы, защищенные авторскими правами, а также файлы нелегального содержания!