🚢 Приветствуем Вас на нашем трекере..🚢...Наш Девиз...Лучшее уже тут...☏...Присоединяйтесь...☏

Статистика раздачи | Обновить пиров
Буду качать: [ 1 ]
Скачал: [ 1 ]
 
   
 
 

[Цитировать]

Михаил Круг - 50 лет (Юбилейный альбом) (2012)- Год: 2012
Жанр: Шансон
Страна: Россия
Продолжительность: 02:21:57
Лейбл: ЗАО «Классик Компани»/ООО «Маркон»
Каталог №: СС СD 27/12 (4 603645 017677)
Сканы: Комплект
Кодек: FLAC (image+.cue)
Битрейт: Lossless

-

CD1

Продолжительность: 01:11:06
Треклист:
01. Приходите в мой дом [3:38]
02. Владимирский централ [4:27]
03. Магадан [4:26]
04. Доброго пути [2:20]
05. Тебе моя последняя любовь [3:03]
06. Не спалила, любила [4:13]
07. Письмо маме [4:16]
08. Раз,два,три по почкам [2:56]
09. Кольщик [4:49]
10. Честный вор [3:19]
11. Исповедь [5:18]
12. Пусти меня, мама [2:52]
13. Белый снег [3:26]
14. Всё сбудется [2:45]
15. Девочка-пай [4:17]
16. Прокурору зелёному-слава! [5:40]
17. Каторжанская цыганочка [5:51]
18. У каких ворот [3:29]
-

Содержимое индексной карты (.cue):

REM GENRE Chanson
REM DATE 2012
REM DISCID FD10A912
REM COMMENT "ExactAudioCopy v1.0b1"
PERFORMER "Михаил Круг"
TITLE "50 лет (Юбилейный альбом) диск1"
FILE "Михаил Круг - 50 лет (Юбилейный альбом) диск1.flac" WAVE
  TRACK 01 AUDIO
    TITLE "Приходите в мой дом"
    PERFORMER "Михаил Круг"
    INDEX 01 00:00:00
  TRACK 02 AUDIO
    TITLE "Владимирский централ"
    PERFORMER "Михаил Круг"
    INDEX 00 03:37:42
    INDEX 01 03:38:37
  TRACK 03 AUDIO
    TITLE "Магадан"
    PERFORMER "Михаил Круг"
    INDEX 00 08:04:48
    INDEX 01 08:05:43
  TRACK 04 AUDIO
    TITLE "Доброго пути"
    PERFORMER "Михаил Круг"
    INDEX 00 12:31:06
    INDEX 01 12:32:01
  TRACK 05 AUDIO
    TITLE "Тебе моя последняя любовь"
    PERFORMER "Михаил Круг"
    INDEX 00 14:51:30
    INDEX 01 14:52:25
  TRACK 06 AUDIO
    TITLE "Не спалила, любила"
    PERFORMER "Михаил Круг"
    INDEX 00 17:54:20
    INDEX 01 17:55:15
  TRACK 07 AUDIO
    TITLE "Письмо маме"
    PERFORMER "Михаил Круг"
    INDEX 00 22:07:19
    INDEX 01 22:08:14
  TRACK 08 AUDIO
    TITLE "Раз,два,три по почкам"
    PERFORMER "Михаил Круг"
    INDEX 00 26:22:72
    INDEX 01 26:23:67
  TRACK 09 AUDIO
    TITLE "Кольщик"
    PERFORMER "Михаил Круг"
    INDEX 00 29:19:27
    INDEX 01 29:20:22
  TRACK 10 AUDIO
    TITLE "Честный вор"
    PERFORMER "Михаил Круг"
    INDEX 00 34:08:32
    INDEX 01 34:09:27
  TRACK 11 AUDIO
    TITLE "Исповедь"
    PERFORMER "Михаил Круг"
    INDEX 00 37:27:31
    INDEX 01 37:28:26
  TRACK 12 AUDIO
    TITLE "Пусти меня, мама"
    PERFORMER "Михаил Круг"
    INDEX 00 42:45:48
    INDEX 01 42:46:43
  TRACK 13 AUDIO
    TITLE "Белый снег"
    PERFORMER "Михаил Круг"
    INDEX 00 45:37:33
    INDEX 01 45:38:28
  TRACK 14 AUDIO
    TITLE "Всё сбудется"
    PERFORMER "Михаил Круг"
    INDEX 00 49:03:50
    INDEX 01 49:04:45
  TRACK 15 AUDIO
    TITLE "Девочка-пай"
    PERFORMER "Михаил Круг"
    INDEX 00 51:48:15
    INDEX 01 51:49:10
  TRACK 16 AUDIO
    TITLE "Прокурору зелёному-слава!"
    PERFORMER "Михаил Круг"
    INDEX 00 56:05:49
    INDEX 01 56:06:44
  TRACK 17 AUDIO
    TITLE "Каторжанская цыганочка"
    PERFORMER "Михаил Круг"
    INDEX 00 61:45:33
    INDEX 01 61:46:28
  TRACK 18 AUDIO
    TITLE "У каких ворот"
    PERFORMER "Михаил Круг"
    INDEX 00 67:36:05
    INDEX 01 67:37:00

Отчёт ЕАС:

Exact Audio Copy V1.0 beta 1 from 15. November 2010
Отчёт EAC об извлечении, выполненном 20. апреля 2012, 16:30
Михаил Круг / 50 лет (Юбилейный альбом) диск1
Дисковод: _NEC    DV-5800E   Adapter: 0  ID: 1
Режим чтения                 : Достоверность
Использование точного потока : Да
Отключение кэша аудио        : Да
Использование указателей C2  : Нет
Коррекция смещения при чтении                     : 6
Способность читать области Lead-in и Lead-out     : Нет
Заполнение пропущенных сэмплов тишиной            : Да
Удаление блоков с тишиной в начале и конце        : Нет
При вычислениях CRC использовались нулевые сэмплы : Да
Интерфейс                                         : Установленный внешний ASPI-интерфейс
Выходной формат : Внутренние WAV-операции
Формат сэмплов  : 44.100 Гц; 16 бит; стерео
TOC извлечённого CD
     Трек |   Старт  | Длительность | Начальный сектор | Конечный сектор
    ---------------------------------------------------------------------
       1  |  0:00.00 |    3:38.37   |           0      |      16386
       2  |  3:38.37 |    4:27.06   |       16387      |      36417
       3  |  8:05.43 |    4:26.33   |       36418      |      56400
       4  | 12:32.01 |    2:20.24   |       56401      |      66924
       5  | 14:52.25 |    3:02.65   |       66925      |      80639
       6  | 17:55.15 |    4:12.74   |       80640      |      99613
       7  | 22:08.14 |    4:15.53   |       99614      |     118791
       8  | 26:23.67 |    2:56.30   |      118792      |     132021
       9  | 29:20.22 |    4:49.05   |      132022      |     153701
      10  | 34:09.27 |    3:18.74   |      153702      |     168625
      11  | 37:28.26 |    5:18.17   |      168626      |     192492
      12  | 42:46.43 |    2:51.60   |      192493      |     205377
      13  | 45:38.28 |    3:26.17   |      205378      |     220844
      14  | 49:04.45 |    2:44.40   |      220845      |     233184
      15  | 51:49.10 |    4:17.34   |      233185      |     252493
      16  | 56:06.44 |    5:39.59   |      252494      |     277977
      17  | 61:46.28 |    5:50.47   |      277978      |     304274
      18  | 67:37.00 |    3:28.58   |      304275      |     319932
Характеристики диапазона извлечения и сообщения об ошибках
Выбранный диапазон
     Имя файла C:\Documents and Settings\Admin\Рабочий стол\Круг Михаил - 50 лет (Юбилейный альбом) 2CD (2012г.)\Диск1\Михаил Круг - 50 лет (Юбилейный альбом) диск1.wav
     Пиковый уровень 98.8 %
0.5 X
     Качество диапазона 100.0 %
     CRC теста 7DBE0CDB
     CRC копии 7DBE0CDB
     Копирование... OK
Ошибок не произошло
Конец отчёта

Отчёт auCDtect Task manager:

-----------------------
DON'T MODIFY THIS FILE
-----------------------
PERFORMER: auCDtect Task Manager, ver. 1.5.1RC3 build 1.5.1.4
Copyright (c) 2008-2010 y-soft. All rights reserved
http://y-soft.org
ANALYZER: auCDtect: CD records authenticity detector, version 0.8.2
Copyright (c) 2004 Oleg Berngardt. All rights reserved.
Copyright (c) 2004 Alexander Djourik. All rights reserved.
FILE: Михаил Круг - 50 лет (Юбилейный альбом) диск1.flac
  Size: 568782774 Hash: B39234A31AA33A3FDA9FA93F97153813 Accuracy: -m0
  Conclusion: CDDA 99%
  Signature: 54BA4955D2EEFE91C7AFDB4938EFA31CDBD41CEF
-

CD2

Продолжительность: 01:10:51
Треклист:
01. Купола [5:13]
02. Только для тебя [3:27]
03. Студентка [3:56]
04. Масть крестовая [2:49]
05. Постой, душа [4:27]
06. Чай с баранками [3:31]
07. Роза [4:47]
08. Ностальгия о будущей жизни [4:12]
09. Красавица [3:50]
10. Мадам [4:15]
11. Девочка-пай 2 [3:58]
12. Свобода [3:28]
13. Падал снег [3:51]
14. Жиган-лимон [2:54]
15. Это было вчера [4:33]
16. Чиколда [2:54]
17. Давай поговорим [4:05]
18. Тишина [4:39]
-

Содержимое индексной карты (.cue):

REM GENRE Chanson
REM DATE 2012
REM DISCID 0F109A12
REM COMMENT "ExactAudioCopy v1.0b1"
PERFORMER "Михаил Круг"
TITLE "50 лет (Юбилейный альбом) диск2"
FILE "Михаил Круг - 50 лет (Юбилейный альбом) диск2.flac" WAVE
  TRACK 01 AUDIO
    TITLE "Купола"
    PERFORMER "Михаил Круг"
    INDEX 01 00:00:00
  TRACK 02 AUDIO
    TITLE "Только для тебя"
    PERFORMER "Михаил Круг"
    INDEX 00 05:11:62
    INDEX 01 05:12:57
  TRACK 03 AUDIO
    TITLE "Студентка"
    PERFORMER "Михаил Круг"
    INDEX 00 08:38:73
    INDEX 01 08:39:68
  TRACK 04 AUDIO
    TITLE "Масть крестовая"
    PERFORMER "Михаил Круг"
    INDEX 00 12:34:63
    INDEX 01 12:35:58
  TRACK 05 AUDIO
    TITLE "Постой, душа"
    PERFORMER "Михаил Круг"
    INDEX 00 15:24:10
    INDEX 01 15:25:05
  TRACK 06 AUDIO
    TITLE "Чай с баранками"
    PERFORMER "Михаил Круг"
    INDEX 00 19:51:34
    INDEX 01 19:52:29
  TRACK 07 AUDIO
    TITLE "Роза"
    PERFORMER "Михаил Круг"
    INDEX 00 23:22:48
    INDEX 01 23:23:43
  TRACK 08 AUDIO
    TITLE "Ностальгия о будущей жизни"
    PERFORMER "Михаил Круг"
    INDEX 00 28:09:45
    INDEX 01 28:10:40
  TRACK 09 AUDIO
    TITLE "Красавица"
    PERFORMER "Михаил Круг"
    INDEX 00 32:21:71
    INDEX 01 32:22:66
  TRACK 10 AUDIO
    TITLE "Мадам"
    PERFORMER "Михаил Круг"
    INDEX 00 36:12:23
    INDEX 01 36:13:18
  TRACK 11 AUDIO
    TITLE "Девочка-пай 2"
    PERFORMER "Михаил Круг"
    INDEX 00 40:27:52
    INDEX 01 40:28:47
  TRACK 12 AUDIO
    TITLE "Свобода"
    PERFORMER "Михаил Круг"
    INDEX 00 44:25:73
    INDEX 01 44:26:68
  TRACK 13 AUDIO
    TITLE "Падал снег"
    PERFORMER "Михаил Круг"
    INDEX 00 47:53:37
    INDEX 01 47:54:32
  TRACK 14 AUDIO
    TITLE "Жиган-лимон"
    PERFORMER "Михаил Круг"
    INDEX 00 51:44:39
    INDEX 01 51:45:34
  TRACK 15 AUDIO
    TITLE "Это было вчера"
    PERFORMER "Михаил Круг"
    INDEX 00 54:38:30
    INDEX 01 54:39:25
  TRACK 16 AUDIO
    TITLE "Чиколда"
    PERFORMER "Михаил Круг"
    INDEX 00 59:11:52
    INDEX 01 59:12:47
  TRACK 17 AUDIO
    TITLE "Давай поговорим"
    PERFORMER "Михаил Круг"
    INDEX 00 62:06:02
    INDEX 01 62:06:72
  TRACK 18 AUDIO
    TITLE "Тишина"
    PERFORMER "Михаил Круг"
    INDEX 00 66:11:21
    INDEX 01 66:12:16

Отчёт ЕАС:

Exact Audio Copy V1.0 beta 1 from 15. November 2010
Отчёт EAC об извлечении, выполненном 20. апреля 2012, 16:49
Михаил Круг / 50 лет (Юбилейный альбом) диск2
Дисковод: _NEC    DV-5800E   Adapter: 0  ID: 1
Режим чтения                 : Достоверность
Использование точного потока : Да
Отключение кэша аудио        : Да
Использование указателей C2  : Нет
Коррекция смещения при чтении                     : 6
Способность читать области Lead-in и Lead-out     : Нет
Заполнение пропущенных сэмплов тишиной            : Да
Удаление блоков с тишиной в начале и конце        : Нет
При вычислениях CRC использовались нулевые сэмплы : Да
Интерфейс                                         : Установленный внешний ASPI-интерфейс
Выходной формат : Внутренние WAV-операции
Формат сэмплов  : 44.100 Гц; 16 бит; стерео
TOC извлечённого CD
     Трек |   Старт  | Длительность | Начальный сектор | Конечный сектор
    ---------------------------------------------------------------------
       1  |  0:00.00 |    5:12.57   |           0      |      23456
       2  |  5:12.57 |    3:27.11   |       23457      |      38992
       3  |  8:39.68 |    3:55.65   |       38993      |      56682
       4  | 12:35.58 |    2:49.22   |       56683      |      69379
       5  | 15:25.05 |    4:27.24   |       69380      |      89428
       6  | 19:52.29 |    3:31.14   |       89429      |     105267
       7  | 23:23.43 |    4:46.72   |      105268      |     126789
       8  | 28:10.40 |    4:12.26   |      126790      |     145715
       9  | 32:22.66 |    3:50.27   |      145716      |     162992
      10  | 36:13.18 |    4:15.29   |      162993      |     182146
      11  | 40:28.47 |    3:58.21   |      182147      |     200017
      12  | 44:26.68 |    3:27.39   |      200018      |     215581
      13  | 47:54.32 |    3:51.02   |      215582      |     232908
      14  | 51:45.34 |    2:53.66   |      232909      |     245949
      15  | 54:39.25 |    4:33.22   |      245950      |     266446
      16  | 59:12.47 |    2:54.25   |      266447      |     279521
      17  | 62:06.72 |    4:05.19   |      279522      |     297915
      18  | 66:12.16 |    4:38.42   |      297916      |     318807
Характеристики диапазона извлечения и сообщения об ошибках
Выбранный диапазон
     Имя файла C:\Documents and Settings\Admin\Рабочий стол\Круг Михаил - 50 лет (Юбилейный альбом) 2CD (2012г.)\Диск2\Михаил Круг - 50 лет (Юбилейный альбом) диск2.wav
     Пиковый уровень 98.8 %
0.7 X
     Качество диапазона 99.9 %
     CRC теста B6351FF6
     CRC копии B6351FF6
     Копирование... OK
Ошибок не произошло
Конец отчёта

Отчёт auCDtect Task manager:

-----------------------
DON'T MODIFY THIS FILE
-----------------------
PERFORMER: auCDtect Task Manager, ver. 1.5.1RC3 build 1.5.1.4
Copyright (c) 2008-2010 y-soft. All rights reserved
http://y-soft.org
ANALYZER: auCDtect: CD records authenticity detector, version 0.8.2
Copyright (c) 2004 Oleg Berngardt. All rights reserved.
Copyright (c) 2004 Alexander Djourik. All rights reserved.
FILE: Михаил Круг - 50 лет (Юбилейный альбом) диск2.flac
  Size: 568217311 Hash: 820D755B042F32B69C245DD058F5ACBD Accuracy: -m0
  Conclusion: CDDA 100%
  Signature: B22B6DAB0E1CC98F087852DD53481F88A60571EB
-

[Цитировать]

bd ag ммм да! старо как этот мир!...

[Цитировать]

aa aa aa


Показать сообщения:    

Текущее время: 28-Май 11:00

Часовой пояс: UTC + 3


Вы не можете начинать темы
Вы не можете отвечать на сообщения
Вы не можете редактировать свои сообщения
Вы не можете удалять свои сообщения
Вы не можете голосовать в опросах
Вы не можете прикреплять файлы к сообщениям
Вы не можете скачивать файлы

!ВНИМАНИЕ!
Сайт не предоставляет электронные версии произведений, а занимается лишь коллекционированием и каталогизацией ссылок, присылаемых и публикуемых на форуме нашими читателями. Если вы являетесь правообладателем какого-либо представленного материала и не желаете, чтобы ссылка на него находилась в нашем каталоге, свяжитесь с нами, и мы незамедлительно удалим ее. Файлы для обмена на трекере предоставлены пользователями сайта, и администрация не несет ответственности за их содержание. Просьба не заливать файлы, защищенные авторскими правами, а также файлы нелегального содержания!