🚢 Приветствуем Вас на нашем трекере..🚢...Наш Девиз...Лучшее уже тут...☏...Присоединяйтесь...☏

Статистика раздачи | Обновить пиров
Скачал: [ 10 ]
 
   
 
 

[Цитировать]

-Наутилус Помпилиус - Платиновая коллекция (2CD)--
Год издания: 2002
Страна: Russia
Жанр: Rock
Продолжительность: 02:38:40-Лейбл издания: © 2002 StationPlus, "МЕШОК С ХИТАМИ"
Страна-выпуска диска: Russia
Номер по каталогу: PC-044-2002-Формат: FLAC
Битрейт аудио: Lossless
Тип рипа: image +.cue
Наличие сканов в содержимом раздачи: да
-

Трэклист

CD 1 | 01:19:24


01. Апельсиновый день (4:29)
02. Новые легионы (3:25)
03. Скованные одной цепью (4:14)
04. Хлоп-хлоп (3:53)
05. Зверь (6:23)
06. Христос (4:05)
07. Казанова (4:19)
08. Утро Полины (5:02)
09. На берегу безымянной реки (4:14)
10. Во время дождя (3:33)
11. Князь тишины (3:32)
12. Шар цвета хаки (2:39)
13. Дыхание (3:36)
14. Титание (5:03)
15. Странника в ночи (2:44)
16. Падал теплый снег (2:44)
17. Прогулки по воде (3:44)
18. Негодяй и ангел (3:45)
19. Падший ангел (3:41)
20. Я хочу быть с тобой (4:19)

CD 2 | 01:19:16


01. Доктор твоего тела (4:35)
02. Взгляд с экрана (4:30)
03. Синоптики (4:40)
04. Жажда (3:03)
05. Крылья (3:43)
06. Одинокая птица (4:47)
07. Тутанхамон (4:50)
08. Атлантида (4:03)
09. Чужая земля (4:08)
10. Летучая мышь (5:07)
11. Кто ещё (4:14)
12. Всего лишь быть (4:41)
13. Тихие игры (3:22)
14. К Эллизе (5:04)
15. Летучий фрегат (3:40)
16. Умершие во сне (4:41)
17. Колеса любви (2:50)
18. Бриллиантовые дороги (3:40)
19. Прощальное письмо (Гудбай Америка) (3:38)
-

Лог создания рипа

CD 1

Exact Audio Copy V1.3 from 2. September 2016
EAC extraction logfile from 24. September 2019, 18:53
Наутилус Помпилиус / Платиновая коллекция CD1
Used drive  : HL-DT-STCD-RW GCE-8526B   Adapter: 0  ID: 0
Read mode               : Secure
Utilize accurate stream : Yes
Defeat audio cache      : Yes
Make use of C2 pointers : No
Read offset correction                      : 6
Overread into Lead-In and Lead-Out          : No
Fill up missing offset samples with silence : Yes
Delete leading and trailing silent blocks   : No
Null samples used in CRC calculations       : Yes
Used interface                              : Installed external ASPI interface
Used output format              : User Defined Encoder
Selected bitrate                : 128 kBit/s
Quality                         : High
Add ID3 tag                     : No
Command line compressor         : C:\Program Files (x86)\Exact Audio Copy\Flac\flac.exe
Additional command line options : -V -8 -T "Date=%year%" -T "Genre=%genre%" -T"COMMENT=" -8 -V %source%
TOC of the extracted CD
     Track |   Start  |  Length  | Start sector | End sector
    ---------------------------------------------------------
        1  |  0:00.00 |  4:29.01 |         0    |    20175
        2  |  4:29.01 |  3:24.66 |     20176    |    35541
        3  |  7:53.67 |  4:14.18 |     35542    |    54609
        4  | 12:08.10 |  3:52.60 |     54610    |    72069
        5  | 16:00.70 |  6:22.52 |     72070    |   100771
        6  | 22:23.47 |  4:05.37 |    100772    |   119183
        7  | 26:29.09 |  4:18.40 |    119184    |   138573
        8  | 30:47.49 |  5:01.63 |    138574    |   161211
        9  | 35:49.37 |  4:13.51 |    161212    |   180237
       10  | 40:03.13 |  3:32.57 |    180238    |   196194
       11  | 43:35.70 |  3:31.55 |    196195    |   212074
       12  | 47:07.50 |  2:39.09 |    212075    |   224008
       13  | 49:46.59 |  3:36.27 |    224009    |   240235
       14  | 53:23.11 |  5:02.42 |    240236    |   262927
       15  | 58:25.53 |  2:44.25 |    262928    |   275252
       16  | 61:10.03 |  2:44.24 |    275253    |   287576
       17  | 63:54.27 |  3:43.55 |    287577    |   304356
       18  | 67:38.07 |  3:45.12 |    304357    |   321243
       19  | 71:23.19 |  3:41.07 |    321244    |   337825
       20  | 75:04.26 |  4:19.19 |    337826    |   357269
Range status and errors
Selected range
     Filename I:\Наутилус Помпилиус - Платиновая коллекция CD1.wav
     Peak level 100.0 %
     Extraction speed 5.2 X
     Range quality 99.9 %
     Test CRC 4D7B27AC
     Copy CRC 4D7B27AC
     Copy OK
No errors occurred
AccurateRip summary
Track  1  not present in database
Track  2  not present in database
Track  3  not present in database
Track  4  not present in database
Track  5  not present in database
Track  6  not present in database
Track  7  not present in database
Track  8  not present in database
Track  9  not present in database
Track 10  not present in database
Track 11  not present in database
Track 12  not present in database
Track 13  not present in database
Track 14  not present in database
Track 15  not present in database
Track 16  not present in database
Track 17  not present in database
Track 18  not present in database
Track 19  not present in database
Track 20  not present in database
None of the tracks are present in the AccurateRip database
End of status report

CD 2

Exact Audio Copy V1.3 from 2. September 2016
EAC extraction logfile from 24. September 2019, 19:52
Наутилус Помпилиус / Платиновая коллекция CD2
Used drive  : HL-DT-STCD-RW GCE-8526B   Adapter: 0  ID: 0
Read mode               : Secure
Utilize accurate stream : Yes
Defeat audio cache      : Yes
Make use of C2 pointers : No
Read offset correction                      : 6
Overread into Lead-In and Lead-Out          : No
Fill up missing offset samples with silence : Yes
Delete leading and trailing silent blocks   : No
Null samples used in CRC calculations       : Yes
Used interface                              : Installed external ASPI interface
Used output format              : User Defined Encoder
Selected bitrate                : 128 kBit/s
Quality                         : High
Add ID3 tag                     : No
Command line compressor         : C:\Program Files (x86)\Exact Audio Copy\Flac\flac.exe
Additional command line options : -V -8 -T "Date=%year%" -T "Genre=%genre%" -T"COMMENT=" -8 -V %source%
TOC of the extracted CD
     Track |   Start  |  Length  | Start sector | End sector
    ---------------------------------------------------------
        1  |  0:00.00 |  4:34.68 |         0    |    20617
        2  |  4:34.68 |  4:30.32 |     20618    |    40899
        3  |  9:05.25 |  4:39.70 |     40900    |    61894
        4  | 13:45.20 |  3:03.37 |     61895    |    75656
        5  | 16:48.57 |  3:42.53 |     75657    |    92359
        6  | 20:31.35 |  4:46.62 |     92360    |   113871
        7  | 25:18.22 |  4:50.04 |    113872    |   135625
        8  | 30:08.26 |  4:03.16 |    135626    |   153866
        9  | 34:11.42 |  4:07.52 |    153867    |   172443
       10  | 38:19.19 |  5:07.16 |    172444    |   195484
       11  | 43:26.35 |  4:13.42 |    195485    |   214501
       12  | 47:40.02 |  4:41.21 |    214502    |   235597
       13  | 52:21.23 |  3:22.29 |    235598    |   250776
       14  | 55:43.52 |  5:03.63 |    250777    |   273564
       15  | 60:47.40 |  3:39.48 |    273565    |   290037
       16  | 64:27.13 |  4:41.03 |    290038    |   311115
       17  | 69:08.16 |  2:49.69 |    311116    |   323859
       18  | 71:58.10 |  3:40.26 |    323860    |   340385
       19  | 75:38.36 |  3:37.71 |    340386    |   356731
Range status and errors
Selected range
     Filename I:\Наутилус Помпилиус - Платиновая коллекция CD2.wav
     Peak level 100.0 %
     Extraction speed 3.5 X
     Range quality 100.0 %
     Test CRC 1AB4CF49
     Copy CRC 1AB4CF49
     Copy OK
No errors occurred
AccurateRip summary
Track  1  not present in database
Track  2  not present in database
Track  3  not present in database
Track  4  not present in database
Track  5  not present in database
Track  6  not present in database
Track  7  not present in database
Track  8  not present in database
Track  9  not present in database
Track 10  not present in database
Track 11  not present in database
Track 12  not present in database
Track 13  not present in database
Track 14  not present in database
Track 15  not present in database
Track 16  not present in database
Track 17  not present in database
Track 18  not present in database
Track 19  not present in database
None of the tracks are present in the AccurateRip database
End of status report

Индексная карта (non-compilant .cue)

CD 1

REM GENRE Rock
REM DATE 2002
REM DISCID 2A129B14
REM COMMENT "ExactAudioCopy v1.3"
PERFORMER "Наутилус Помпилиус"
TITLE "Платиновая коллекция CD1"
REM COMPOSER ""
FILE "Наутилус Помпилиус - Платиновая коллекция CD1.flac" WAVE
  TRACK 01 AUDIO
    TITLE "Апельсиновый день"
    PERFORMER "Наутилус Помпилиус"
    REM COMPOSER ""
    FLAGS DCP
    INDEX 01 00:00:00
  TRACK 02 AUDIO
    TITLE "Новые легионы"
    PERFORMER "Наутилус Помпилиус"
    REM COMPOSER ""
    FLAGS DCP
    INDEX 01 04:29:01
  TRACK 03 AUDIO
    TITLE "Скованные одной цепью"
    PERFORMER "Наутилус Помпилиус"
    REM COMPOSER ""
    FLAGS DCP
    INDEX 01 07:53:67
  TRACK 04 AUDIO
    TITLE "Хлоп-хлоп"
    PERFORMER "Наутилус Помпилиус"
    REM COMPOSER ""
    FLAGS DCP
    INDEX 01 12:08:10
  TRACK 05 AUDIO
    TITLE "Зверь"
    PERFORMER "Наутилус Помпилиус"
    REM COMPOSER ""
    FLAGS DCP
    INDEX 01 16:00:70
  TRACK 06 AUDIO
    TITLE "Христос"
    PERFORMER "Наутилус Помпилиус"
    REM COMPOSER ""
    FLAGS DCP
    INDEX 01 22:23:47
  TRACK 07 AUDIO
    TITLE "Казанова"
    PERFORMER "Наутилус Помпилиус"
    REM COMPOSER ""
    FLAGS DCP
    INDEX 01 26:29:09
  TRACK 08 AUDIO
    TITLE "Утро Полины"
    PERFORMER "Наутилус Помпилиус"
    REM COMPOSER ""
    FLAGS DCP
    INDEX 01 30:47:49
  TRACK 09 AUDIO
    TITLE "На берегу безымянной реки"
    PERFORMER "Наутилус Помпилиус"
    REM COMPOSER ""
    FLAGS DCP
    INDEX 01 35:49:37
  TRACK 10 AUDIO
    TITLE "Во время дождя"
    PERFORMER "Наутилус Помпилиус"
    REM COMPOSER ""
    FLAGS DCP
    INDEX 01 40:03:13
  TRACK 11 AUDIO
    TITLE "Князь тишины"
    PERFORMER "Наутилус Помпилиус"
    REM COMPOSER ""
    FLAGS DCP
    INDEX 01 43:35:70
  TRACK 12 AUDIO
    TITLE "Шар цвета хаки"
    PERFORMER "Наутилус Помпилиус"
    REM COMPOSER ""
    FLAGS DCP
    INDEX 01 47:07:50
  TRACK 13 AUDIO
    TITLE "Дыхание"
    PERFORMER "Наутилус Помпилиус"
    REM COMPOSER ""
    FLAGS DCP
    INDEX 01 49:46:59
  TRACK 14 AUDIO
    TITLE "Титание"
    PERFORMER "Наутилус Помпилиус"
    REM COMPOSER ""
    FLAGS DCP
    INDEX 01 53:23:11
  TRACK 15 AUDIO
    TITLE "Странника в ночи"
    PERFORMER "Наутилус Помпилиус"
    REM COMPOSER ""
    FLAGS DCP
    INDEX 01 58:25:53
  TRACK 16 AUDIO
    TITLE "Падал теплый снег"
    PERFORMER "Наутилус Помпилиус"
    REM COMPOSER ""
    FLAGS DCP
    INDEX 01 61:10:03
  TRACK 17 AUDIO
    TITLE "Прогулки по воде"
    PERFORMER "Наутилус Помпилиус"
    REM COMPOSER ""
    FLAGS DCP
    INDEX 01 63:54:27
  TRACK 18 AUDIO
    TITLE "Негодяй и ангел"
    PERFORMER "Наутилус Помпилиус"
    REM COMPOSER ""
    FLAGS DCP
    INDEX 01 67:38:07
  TRACK 19 AUDIO
    TITLE "Падший ангел"
    PERFORMER "Наутилус Помпилиус"
    REM COMPOSER ""
    FLAGS DCP
    INDEX 01 71:23:19
  TRACK 20 AUDIO
    TITLE "Я хочу быть с тобой"
    PERFORMER "Наутилус Помпилиус"
    REM COMPOSER ""
    FLAGS DCP
    INDEX 01 75:04:26

CD 2

REM GENRE Rock
REM DATE 2003
REM DISCID EB129413
REM COMMENT "ExactAudioCopy v1.3"
PERFORMER "Наутилус Помпилиус"
TITLE "Платиновая коллекция CD2"
REM COMPOSER ""
FILE "Наутилус Помпилиус - Платиновая коллекция CD2.flac" WAVE
  TRACK 01 AUDIO
    TITLE "Доктор твоего тела"
    PERFORMER "Наутилус Помпилиус"
    REM COMPOSER ""
    INDEX 01 00:00:00
  TRACK 02 AUDIO
    TITLE "Взгляд с экрана"
    PERFORMER "Наутилус Помпилиус"
    REM COMPOSER ""
    INDEX 01 04:34:68
  TRACK 03 AUDIO
    TITLE "Синоптики"
    PERFORMER "Наутилус Помпилиус"
    REM COMPOSER ""
    INDEX 01 09:05:25
  TRACK 04 AUDIO
    TITLE "Жажда"
    PERFORMER "Наутилус Помпилиус"
    REM COMPOSER ""
    INDEX 01 13:45:20
  TRACK 05 AUDIO
    TITLE "Крылья"
    PERFORMER "Наутилус Помпилиус"
    REM COMPOSER ""
    INDEX 01 16:48:57
  TRACK 06 AUDIO
    TITLE "Одинокая птица"
    PERFORMER "Наутилус Помпилиус"
    REM COMPOSER ""
    INDEX 01 20:31:35
  TRACK 07 AUDIO
    TITLE "Тутанхамон"
    PERFORMER "Наутилус Помпилиус"
    REM COMPOSER ""
    INDEX 01 25:18:22
  TRACK 08 AUDIO
    TITLE "Атлантида"
    PERFORMER "Наутилус Помпилиус"
    REM COMPOSER ""
    INDEX 01 30:08:26
  TRACK 09 AUDIO
    TITLE "Чужая земля"
    PERFORMER "Наутилус Помпилиус"
    REM COMPOSER ""
    INDEX 01 34:11:42
  TRACK 10 AUDIO
    TITLE "Летучая мышь"
    PERFORMER "Наутилус Помпилиус"
    REM COMPOSER ""
    INDEX 01 38:19:19
  TRACK 11 AUDIO
    TITLE "Кто ещё"
    PERFORMER "Наутилус Помпилиус"
    REM COMPOSER ""
    INDEX 01 43:26:35
  TRACK 12 AUDIO
    TITLE "Всего лишь быть"
    PERFORMER "Наутилус Помпилиус"
    REM COMPOSER ""
    INDEX 01 47:40:02
  TRACK 13 AUDIO
    TITLE "Тихие игры"
    PERFORMER "Наутилус Помпилиус"
    REM COMPOSER ""
    INDEX 01 52:21:23
  TRACK 14 AUDIO
    TITLE "К Эллизе"
    PERFORMER "Наутилус Помпилиус"
    REM COMPOSER ""
    INDEX 01 55:43:52
  TRACK 15 AUDIO
    TITLE "Летучий фрегат"
    PERFORMER "Наутилус Помпилиус"
    REM COMPOSER ""
    INDEX 01 60:47:40
  TRACK 16 AUDIO
    TITLE "Умершие во сне"
    PERFORMER "Наутилус Помпилиус"
    REM COMPOSER ""
    INDEX 01 64:27:13
  TRACK 17 AUDIO
    TITLE "Колеса любви"
    PERFORMER "Наутилус Помпилиус"
    REM COMPOSER ""
    INDEX 01 69:08:16
  TRACK 18 AUDIO
    TITLE "Бриллиантовые дороги"
    PERFORMER "Наутилус Помпилиус"
    REM COMPOSER ""
    INDEX 01 71:58:10
  TRACK 19 AUDIO
    TITLE "Прощальное письмо (Гудбай Америка)"
    PERFORMER "Наутилус Помпилиус"
    REM COMPOSER ""
    INDEX 01 75:38:36
--


Показать сообщения:    

Текущее время: 23-Окт 08:31

Часовой пояс: UTC + 3


Вы не можете начинать темы
Вы не можете отвечать на сообщения
Вы не можете редактировать свои сообщения
Вы не можете удалять свои сообщения
Вы не можете голосовать в опросах
Вы не можете прикреплять файлы к сообщениям
Вы не можете скачивать файлы

!ВНИМАНИЕ!
Сайт не предоставляет электронные версии произведений, а занимается лишь коллекционированием и каталогизацией ссылок, присылаемых и публикуемых на форуме нашими читателями. Если вы являетесь правообладателем какого-либо представленного материала и не желаете, чтобы ссылка на него находилась в нашем каталоге, свяжитесь с нами, и мы незамедлительно удалим ее. Файлы для обмена на трекере предоставлены пользователями сайта, и администрация не несет ответственности за их содержание. Просьба не заливать файлы, защищенные авторскими правами, а также файлы нелегального содержания!