㋛ Приветствуем Вас на нашем трекере..㋛...Наш Девиз...Лучшее уже тут...☏...Присоединяйтесь...☏

Статистика раздачи | Обновить пиров
Скачал: [ 3 ]
 
   
 
 

[Цитировать]

-Iron Maiden - The Studio Collection(Box Set 4 CD, 1980-1983, Remastered 2015) --
Год издания: 2018
Страна: UK
Жанр: Heavy Metal
Продолжительность: -Лейбл издания: Iron Maiden LLP, Parlophone Records
Страна-выпуска диска: EU
Номер по каталогу: 0190295567736-Формат: FLAC
Битрейт аудио: Lossless
Тип рипа: image +.cue
Наличие сканов в содержимом раздачи: да
-

Трэклист

1980 - Iron Maiden (2015 Remastered) | 00:37:43


01. Prowler (3:55)
02. Remember Tomorrow (5:29)
03. Running Free (3:18)
04. Phantom Of The Opera (7:21)
05. Transylvania (4:05)
06. Strange World (5:47)
07. Charlotte The Harlot (4:13)
08. Iron Maiden (3:34)

1981 - Killers (2015 Remastered) | 00:38:48


01. The Ides Of March (1:45)
02. Wrathchild (2:55)
03. Murders In The Rue Morgue (4:19)
04. Another Life (3:24)
05. Genghis Khan (3:08)
06. Innocent Exile (3:53)
07. Killers (5:02)
08. Prodigal Son (6:13)
09. Purgatory (3:21)
10. Drifter (4:49)

1982 - The Number Of The Beast (2015 Remastered) | 00:40:22


01. Invaders (3:23)
02. Children Of The Damned (4:35)
03. The Prisoner (6:03)
04. 22 Acacia Avenue (6:37)
05. The Number Of The Beast (4:51)
06. Run To The Hills (3:54)
07. Gangland (3:49)
08. Hallowed Be Thy Name (7:11)

1983 - Piece Of Mind (2015 Remastered) | 00:46:09


01. Where Eagles Dare (6:13)
02. Revelations (6:50)
03. Flight Of Icarus (3:51)
04. Die With Your Boots On (5:27)
05. The Trooper (4:13)
06. Still Life (4:57)
07. Quest For Fire (3:43)
08. Sun And Steel (3:28)
09. To Tame A Land (7:29)
-

Лог создания рипа

CD 1 - 1980

Exact Audio Copy V1.3 from 2. September 2016
EAC extraction logfile from 30. November 2018, 10:10
Iron Maiden / Iron Maiden (2015 Remastered)
Used drive  : PIONEER DVD-RW  DVR-221   Adapter: 1  ID: 1
Read mode               : Secure
Utilize accurate stream : Yes
Defeat audio cache      : Yes
Make use of C2 pointers : No
Read offset correction                      : 6
Overread into Lead-In and Lead-Out          : No
Fill up missing offset samples with silence : Yes
Delete leading and trailing silent blocks   : No
Null samples used in CRC calculations       : Yes
Used interface                              : Installed external ASPI interface
Used output format              : User Defined Encoder
Selected bitrate                : 1024 kBit/s
Quality                         : High
Add ID3 tag                     : No
Command line compressor         : C:\Program Files\Exact Audio Copy\FLAC\FLAC.EXE
Additional command line options : -V -8 -T "Date=%year%" -T "Genre=%genre%" -T "COMMENT=Ripped by  Hellwings71" -8 -V %source%
TOC of the extracted CD
     Track |   Start  |  Length  | Start sector | End sector
    ---------------------------------------------------------
        1  |  0:00.00 |  3:55.30 |         0    |    17654
        2  |  3:55.30 |  5:28.69 |     17655    |    42323
        3  |  9:24.24 |  3:17.43 |     42324    |    57141
        4  | 12:41.67 |  7:21.35 |     57142    |    90251
        5  | 20:03.27 |  4:04.64 |     90252    |   108615
        6  | 24:08.16 |  5:47.26 |    108616    |   134666
        7  | 29:55.42 |  4:13.04 |    134667    |   153645
        8  | 34:08.46 |  3:34.27 |    153646    |   169722
Range status and errors
Selected range
     Filename D:\Program Files\CD Images\Hellwings71\Iron Maiden - The Studio Collection 2018 (Box Set 4 CD) (Remastered 2015) (Lossless)\Iron Maiden\Iron Maiden - Iron Maiden (2015 Remastered).wav
     Peak level 100.0 %
     Extraction speed 6.5 X
     Range quality 100.0 %
     Test CRC 780162D7
     Copy CRC 780162D7
     Copy OK
No errors occurred
AccurateRip summary
Track  1  not present in database
Track  2  not present in database
Track  3  not present in database
Track  4  not present in database
Track  5  not present in database
Track  6  not present in database
Track  7  not present in database
Track  8  not present in database
None of the tracks are present in the AccurateRip database
End of status report

CD 2 - 1981

Exact Audio Copy V1.3 from 2. September 2016
EAC extraction logfile from 30. November 2018, 10:33
Iron Maiden / Killers (2015 Remastered)
Used drive  : PIONEER DVD-RW  DVR-221   Adapter: 1  ID: 1
Read mode               : Secure
Utilize accurate stream : Yes
Defeat audio cache      : Yes
Make use of C2 pointers : No
Read offset correction                      : 6
Overread into Lead-In and Lead-Out          : No
Fill up missing offset samples with silence : Yes
Delete leading and trailing silent blocks   : No
Null samples used in CRC calculations       : Yes
Used interface                              : Installed external ASPI interface
Used output format              : User Defined Encoder
Selected bitrate                : 1024 kBit/s
Quality                         : High
Add ID3 tag                     : No
Command line compressor         : C:\Program Files\Exact Audio Copy\FLAC\FLAC.EXE
Additional command line options : -V -8 -T "Date=%year%" -T "Genre=%genre%" -T "COMMENT=Ripped by  Hellwings71" -8 -V %source%
TOC of the extracted CD
     Track |   Start  |  Length  | Start sector | End sector
    ---------------------------------------------------------
        1  |  0:00.00 |  1:45.20 |         0    |     7894
        2  |  1:45.20 |  2:55.04 |      7895    |    21023
        3  |  4:40.24 |  4:18.66 |     21024    |    40439
        4  |  8:59.15 |  3:23.38 |     40440    |    55702
        5  | 12:22.53 |  3:07.41 |     55703    |    69768
        6  | 15:30.19 |  3:53.05 |     69769    |    87248
        7  | 19:23.24 |  5:01.50 |     87249    |   109873
        8  | 24:24.74 |  6:13.20 |    109874    |   137868
        9  | 30:38.19 |  3:20.42 |    137869    |   152910
       10  | 33:58.61 |  4:48.71 |    152911    |   174581
Range status and errors
Selected range
     Filename D:\Program Files\CD Images\Hellwings71\Iron Maiden - The Studio Collection 2018 (Box Set  4 CD) (Remastered 2015) (Lossless)\Killers\Iron Maiden - Killers (2015 Remastered).wav
     Peak level 100.0 %
     Extraction speed 4.0 X
     Range quality 100.0 %
     Test CRC 075FF413
     Copy CRC 075FF413
     Copy OK
No errors occurred
AccurateRip summary
Track  1  not present in database
Track  2  not present in database
Track  3  not present in database
Track  4  not present in database
Track  5  not present in database
Track  6  not present in database
Track  7  not present in database
Track  8  not present in database
Track  9  not present in database
Track 10  not present in database
None of the tracks are present in the AccurateRip database
End of status report

CD 3 - 1982

Exact Audio Copy V1.3 from 2. September 2016
EAC extraction logfile from 30. November 2018, 10:51
Iron Maiden / The Number Of The Beast (2015 Remastered)
Used drive  : PIONEER DVD-RW  DVR-221   Adapter: 1  ID: 1
Read mode               : Secure
Utilize accurate stream : Yes
Defeat audio cache      : Yes
Make use of C2 pointers : No
Read offset correction                      : 6
Overread into Lead-In and Lead-Out          : No
Fill up missing offset samples with silence : Yes
Delete leading and trailing silent blocks   : No
Null samples used in CRC calculations       : Yes
Used interface                              : Installed external ASPI interface
Used output format              : User Defined Encoder
Selected bitrate                : 1024 kBit/s
Quality                         : High
Add ID3 tag                     : No
Command line compressor         : C:\Program Files\Exact Audio Copy\FLAC\FLAC.EXE
Additional command line options : -V -8 -T "Date=%year%" -T "Genre=%genre%" -T "COMMENT=Ripped by  Hellwings71" -8 -V %source%
TOC of the extracted CD
     Track |   Start  |  Length  | Start sector | End sector
    ---------------------------------------------------------
        1  |  0:00.00 |  3:23.29 |         0    |    15253
        2  |  3:23.29 |  4:35.21 |     15254    |    35899
        3  |  7:58.50 |  6:02.39 |     35900    |    63088
        4  | 14:01.14 |  6:36.57 |     63089    |    92845
        5  | 20:37.71 |  4:50.44 |     92846    |   114639
        6  | 25:28.40 |  3:53.38 |    114640    |   132152
        7  | 29:22.03 |  3:49.09 |    132153    |   149336
        8  | 33:11.12 |  7:11.07 |    149337    |   181668
Range status and errors
Selected range
     Filename D:\Program Files\CD Images\Hellwings71\Iron Maiden - The Studio Collection 2018 (Box Set  4 CD) (Remastered 2015) (Lossless)\The Number Of The Beast\Iron Maiden - The Number Of The Beast (2015 Remastered).wav
     Peak level 100.0 %
     Extraction speed 6.5 X
     Range quality 99.9 %
     Test CRC 8A475731
     Copy CRC 8A475731
     Copy OK
No errors occurred
AccurateRip summary
Track  1  not present in database
Track  2  not present in database
Track  3  not present in database
Track  4  not present in database
Track  5  not present in database
Track  6  not present in database
Track  7  not present in database
Track  8  not present in database
None of the tracks are present in the AccurateRip database
End of status report

CD 4 - 1983

Exact Audio Copy V1.3 from 2. September 2016
EAC extraction logfile from 30. November 2018, 11:17
Iron Maiden / Piece Of Mind (2015 Remastered)
Used drive  : PIONEER DVD-RW  DVR-221   Adapter: 1  ID: 1
Read mode               : Secure
Utilize accurate stream : Yes
Defeat audio cache      : Yes
Make use of C2 pointers : No
Read offset correction                      : 6
Overread into Lead-In and Lead-Out          : No
Fill up missing offset samples with silence : Yes
Delete leading and trailing silent blocks   : No
Null samples used in CRC calculations       : Yes
Used interface                              : Installed external ASPI interface
Used output format              : User Defined Encoder
Selected bitrate                : 1024 kBit/s
Quality                         : High
Add ID3 tag                     : No
Command line compressor         : C:\Program Files\Exact Audio Copy\FLAC\FLAC.EXE
Additional command line options : -V -8 -T "Date=%year%" -T "Genre=%genre%" -T "COMMENT=Ripped by  Hellwings71" -8 -V %source%
TOC of the extracted CD
     Track |   Start  |  Length  | Start sector | End sector
    ---------------------------------------------------------
        1  |  0:00.00 |  6:12.57 |         0    |    27956
        2  |  6:12.57 |  6:49.47 |     27957    |    58678
        3  | 13:02.29 |  3:50.57 |     58679    |    75985
        4  | 16:53.11 |  5:27.19 |     75986    |   100529
        5  | 22:20.30 |  4:12.55 |    100530    |   119484
        6  | 26:33.10 |  4:57.01 |    119485    |   141760
        7  | 31:30.11 |  3:42.49 |    141761    |   158459
        8  | 35:12.60 |  3:27.38 |    158460    |   174022
        9  | 38:40.23 |  7:28.56 |    174023    |   207678
Range status and errors
Selected range
     Filename D:\Program Files\CD Images\Hellwings71\Iron Maiden - The Studio Collection 2018 (Box Set  4 CD) (Remastered 2015) (Lossless)\Piece Of Mind\Iron Maiden - Piece Of Mind (2015 Remastered).wav
     Peak level 100.0 %
     Extraction speed 4.2 X
     Range quality 100.0 %
     Test CRC 209DA11F
     Copy CRC 209DA11F
     Copy OK
No errors occurred
AccurateRip summary
Track  1  not present in database
Track  2  not present in database
Track  3  not present in database
Track  4  not present in database
Track  5  not present in database
Track  6  not present in database
Track  7  not present in database
Track  8  not present in database
Track  9  not present in database
None of the tracks are present in the AccurateRip database
End of status report

Индексная карта (non-compilant .cue)

CD 1 - 1980

REM GENRE "Heavy Metal"
REM DATE 2018
REM DISCID 6008D608
REM COMMENT "ExactAudioCopy v1.3"
PERFORMER "Iron Maiden"
TITLE "Iron Maiden (2015 Remastered)"
REM COMPOSER ""
FILE "Iron Maiden - Iron Maiden (2015 Remastered).flac" WAVE
  TRACK 01 AUDIO
    TITLE "Prowler"
    PERFORMER "Iron Maiden"
    REM COMPOSER ""
    INDEX 01 00:00:00
  TRACK 02 AUDIO
    TITLE "Remember Tomorrow"
    PERFORMER "Iron Maiden"
    REM COMPOSER ""
    INDEX 01 03:55:30
  TRACK 03 AUDIO
    TITLE "Running Free"
    PERFORMER "Iron Maiden"
    REM COMPOSER ""
    INDEX 01 09:24:24
  TRACK 04 AUDIO
    TITLE "Phantom Of The Opera"
    PERFORMER "Iron Maiden"
    REM COMPOSER ""
    INDEX 01 12:41:67
  TRACK 05 AUDIO
    TITLE "Transylvania"
    PERFORMER "Iron Maiden"
    REM COMPOSER ""
    INDEX 01 20:03:27
  TRACK 06 AUDIO
    TITLE "Strange World"
    PERFORMER "Iron Maiden"
    REM COMPOSER ""
    INDEX 01 24:08:16
  TRACK 07 AUDIO
    TITLE "Charlotte The Harlot"
    PERFORMER "Iron Maiden"
    REM COMPOSER ""
    INDEX 01 29:55:42
  TRACK 08 AUDIO
    TITLE "Iron Maiden"
    PERFORMER "Iron Maiden"
    REM COMPOSER ""
    INDEX 01 34:08:46

CD 2 - 1981

REM GENRE "Heavy Metal"
REM DATE 2018
REM DISCID 6E09170A
REM COMMENT "ExactAudioCopy v1.3"
PERFORMER "Iron Maiden"
TITLE "Killers (2015 Remastered)"
REM COMPOSER ""
FILE "Iron Maiden - Killers (2015 Remastered).flac" WAVE
  TRACK 01 AUDIO
    TITLE "The Ides Of March"
    PERFORMER "Iron Maiden"
    REM COMPOSER ""
    INDEX 01 00:00:00
  TRACK 02 AUDIO
    TITLE "Wrathchild"
    PERFORMER "Iron Maiden"
    REM COMPOSER ""
    INDEX 01 01:45:20
  TRACK 03 AUDIO
    TITLE "Murders In The Rue Morgue"
    PERFORMER "Iron Maiden"
    REM COMPOSER ""
    INDEX 01 04:40:24
  TRACK 04 AUDIO
    TITLE "Another Life"
    PERFORMER "Iron Maiden"
    REM COMPOSER ""
    INDEX 01 08:59:15
  TRACK 05 AUDIO
    TITLE "Genghis Khan"
    PERFORMER "Iron Maiden"
    REM COMPOSER ""
    INDEX 01 12:22:53
  TRACK 06 AUDIO
    TITLE "Innocent Exile"
    PERFORMER "Iron Maiden"
    REM COMPOSER ""
    INDEX 01 15:30:19
  TRACK 07 AUDIO
    TITLE "Killers"
    PERFORMER "Iron Maiden"
    REM COMPOSER ""
    INDEX 01 19:23:24
  TRACK 08 AUDIO
    TITLE "Prodigal Son"
    PERFORMER "Iron Maiden"
    REM COMPOSER ""
    INDEX 01 24:24:74
  TRACK 09 AUDIO
    TITLE "Purgatory"
    PERFORMER "Iron Maiden"
    REM COMPOSER ""
    INDEX 01 30:38:19
  TRACK 10 AUDIO
    TITLE "Drifter"
    PERFORMER "Iron Maiden"
    REM COMPOSER ""
    INDEX 01 33:58:61

CD 3 - 1982

REM GENRE "Heavy Metal"
REM DATE 2018
REM DISCID 64097608
REM COMMENT "ExactAudioCopy v1.3"
PERFORMER "Iron Maiden"
TITLE "The Number Of The Beast (2015 Remastered)"
REM COMPOSER ""
FILE "Iron Maiden - The Number Of The Beast (2015 Remastered).flac" WAVE
  TRACK 01 AUDIO
    TITLE "Invaders"
    PERFORMER "Iron Maiden"
    REM COMPOSER ""
    INDEX 01 00:00:00
  TRACK 02 AUDIO
    TITLE "Children Of The Damned"
    PERFORMER "Iron Maiden"
    REM COMPOSER ""
    INDEX 01 03:23:29
  TRACK 03 AUDIO
    TITLE "The Prisoner"
    PERFORMER "Iron Maiden"
    REM COMPOSER ""
    INDEX 01 07:58:50
  TRACK 04 AUDIO
    TITLE "22 Acacia Avenue"
    PERFORMER "Iron Maiden"
    REM COMPOSER ""
    INDEX 01 14:01:14
  TRACK 05 AUDIO
    TITLE "The Number Of The Beast"
    PERFORMER "Iron Maiden"
    REM COMPOSER ""
    INDEX 01 20:37:71
  TRACK 06 AUDIO
    TITLE "Run To The Hills"
    PERFORMER "Iron Maiden"
    REM COMPOSER ""
    INDEX 01 25:28:40
  TRACK 07 AUDIO
    TITLE "Gangland"
    PERFORMER "Iron Maiden"
    REM COMPOSER ""
    INDEX 01 29:22:03
  TRACK 08 AUDIO
    TITLE "Hallowed Be Thy Name"
    PERFORMER "Iron Maiden"
    REM COMPOSER ""
    INDEX 01 33:11:12

CD 4 - 1983

REM GENRE "Heavy Metal"
REM DATE 2018
REM DISCID 6D0AD109
REM COMMENT "ExactAudioCopy v1.3"
PERFORMER "Iron Maiden"
TITLE "Piece Of Mind (2015 Remastered)"
REM COMPOSER ""
FILE "Iron Maiden - Piece Of Mind (2015 Remastered).flac" WAVE
  TRACK 01 AUDIO
    TITLE "Where Eagles Dare"
    PERFORMER "Iron Maiden"
    REM COMPOSER ""
    INDEX 01 00:00:00
  TRACK 02 AUDIO
    TITLE "Revelations"
    PERFORMER "Iron Maiden"
    REM COMPOSER ""
    INDEX 01 06:12:57
  TRACK 03 AUDIO
    TITLE "Flight Of Icarus"
    PERFORMER "Iron Maiden"
    REM COMPOSER ""
    INDEX 01 13:02:29
  TRACK 04 AUDIO
    TITLE "Die With Your Boots On"
    PERFORMER "Iron Maiden"
    REM COMPOSER ""
    INDEX 01 16:53:11
  TRACK 05 AUDIO
    TITLE "The Trooper"
    PERFORMER "Iron Maiden"
    REM COMPOSER ""
    INDEX 01 22:20:30
  TRACK 06 AUDIO
    TITLE "Still Life"
    PERFORMER "Iron Maiden"
    REM COMPOSER ""
    INDEX 01 26:33:10
  TRACK 07 AUDIO
    TITLE "Quest For Fire"
    PERFORMER "Iron Maiden"
    REM COMPOSER ""
    INDEX 01 31:30:11
  TRACK 08 AUDIO
    TITLE "Sun And Steel"
    PERFORMER "Iron Maiden"
    REM COMPOSER ""
    INDEX 01 35:12:60
  TRACK 09 AUDIO
    TITLE "To Tame A Land"
    PERFORMER "Iron Maiden"
    REM COMPOSER ""
    INDEX 01 38:40:23
--


Показать сообщения:    

Текущее время: 18-Фев 05:47

Часовой пояс: UTC + 3


Вы не можете начинать темы
Вы не можете отвечать на сообщения
Вы не можете редактировать свои сообщения
Вы не можете удалять свои сообщения
Вы не можете голосовать в опросах
Вы не можете прикреплять файлы к сообщениям
Вы не можете скачивать файлы

!ВНИМАНИЕ!
Сайт не предоставляет электронные версии произведений, а занимается лишь коллекционированием и каталогизацией ссылок, присылаемых и публикуемых на форуме нашими читателями. Если вы являетесь правообладателем какого-либо представленного материала и не желаете, чтобы ссылка на него находилась в нашем каталоге, свяжитесь с нами, и мы незамедлительно удалим ее. Файлы для обмена на трекере предоставлены пользователями сайта, и администрация не несет ответственности за их содержание. Просьба не заливать файлы, защищенные авторскими правами, а также файлы нелегального содержания!