🚢 Приветствуем Вас на нашем трекере..🚢...Наш Девиз...Лучшее уже тут...☏...Присоединяйтесь...☏

Статистика раздачи | Обновить пиров
Нет
 
   
 
 

[Цитировать]

-Praying Mantis - Gravity--
Год издания: 2018
Страна: UK
Жанр: Melodic Hard Rock
Продолжительность: 01:02:34-Лейбл издания: King Record Co
Страна-выпуска диска: Japan
Номер по каталогу: KICP 1902-Формат: FLAC
Битрейт аудио: Lossless
Тип рипа: image +.cue
Наличие сканов в содержимом раздачи: да
-

Трэклист


01. Keep It Alive (6:01)
02. Mantis Anthem (6:36)
03. Time Can Heal (3:42)
04. 39 Years (4:18)
05. Gravity (5:44)
06. Ghosts Of The Past (5:05)
07. Destiny In Motion (5:12)
08. THE Last Summer (4:38)
09. Foreign Affair (6:33)
10. Shadow Of Love (4:45)
11. Final Destination (5:20)
12. The Last Summer {Laid Bare Mix / Bonus Track} (4:41)
-

Лог создания рипа

Exact Audio Copy V1.3 from 2. September 2016
EAC extraction logfile from 18. May 2018, 16:42
Praying Mantis / Gravity (Japan)
Used drive  : ATAPI   iHAS122   W   Adapter: 2  ID: 0
Read mode               : Secure
Utilize accurate stream : Yes
Defeat audio cache      : Yes
Make use of C2 pointers : No
Read offset correction                      : 48
Overread into Lead-In and Lead-Out          : No
Fill up missing offset samples with silence : Yes
Delete leading and trailing silent blocks   : No
Null samples used in CRC calculations       : Yes
Used interface                              : Installed external ASPI interface
Used output format              : User Defined Encoder
Selected bitrate                : 1024 kBit/s
Quality                         : High
Add ID3 tag                     : No
Command line compressor         : C:\Program Files\FLAC\flac.exe
Additional command line options : -V -8 -T "Date=%year%" -T "Genre=%genre%" -T"COMMENT=Ripped by  Ilijan" -8 -V %source%
TOC of the extracted CD
     Track |   Start  |  Length  | Start sector | End sector
    ---------------------------------------------------------
        1  |  0:00.00 |  6:00.43 |         0    |    27042
        2  |  6:00.43 |  6:35.52 |     27043    |    56719
        3  | 12:36.20 |  3:41.49 |     56720    |    73343
        4  | 16:17.69 |  4:17.61 |     73344    |    92679
        5  | 20:35.55 |  5:43.73 |     92680    |   118477
        6  | 26:19.53 |  5:04.53 |    118478    |   141330
        7  | 31:24.31 |  5:12.17 |    141331    |   164747
        8  | 36:36.48 |  4:38.09 |    164748    |   185606
        9  | 41:14.57 |  6:33.37 |    185607    |   215118
       10  | 47:48.19 |  4:45.23 |    215119    |   236516
       11  | 52:33.42 |  5:19.38 |    236517    |   260479
       12  | 57:53.05 |  4:40.66 |    260480    |   281545
Range status and errors
Selected range
     Filename D:\ Praying Mantis - Gravity (Japan).wav
     Peak level 99.8 %
     Extraction speed 4.3 X
     Range quality 99.9 %
     Test CRC 9E9E082D
     Copy CRC 9E9E082D
     Copy OK
No errors occurred
AccurateRip summary
Track  1  not present in database
Track  2  not present in database
Track  3  not present in database
Track  4  not present in database
Track  5  not present in database
Track  6  not present in database
Track  7  not present in database
Track  8  not present in database
Track  9  not present in database
Track 10  not present in database
Track 11  not present in database
Track 12  not present in database
None of the tracks are present in the AccurateRip database
End of status report
---- CUETools DB Plugin V2.1.6
[CTDB TOCID: GkzmEfRnapf6nzXUnL9NNijclyA-] found
Submit result: GkzmEfRnapf6nzXUnL9NNijclyA- has been confirmed
Track | CTDB Status
  1   | (2/2) Accurately ripped
  2   | (2/2) Accurately ripped
  3   | (2/2) Accurately ripped
  4   | (2/2) Accurately ripped
  5   | (2/2) Accurately ripped
  6   | (2/2) Accurately ripped
  7   | (2/2) Accurately ripped
  8   | (2/2) Accurately ripped
  9   | (2/2) Accurately ripped
10   | (2/2) Accurately ripped
11   | (2/2) Accurately ripped
12   | (2/2) Accurately ripped

Индексная карта (non-compilant .cue)

REM GENRE "Heavy Metal"
REM DATE 2018
REM DISCID C60EA90C
REM COMMENT "ExactAudioCopy v1.3"
PERFORMER "Praying Mantis"
TITLE "Gravity (Japan)"
FILE "Praying Mantis - Gravity (Japan).flac" WAVE
  TRACK 01 AUDIO
    TITLE "Keep It Alive"
    PERFORMER "Praying Mantis"
    INDEX 01 00:00:00
  TRACK 02 AUDIO
    TITLE "Mantis Anthem"
    PERFORMER "Praying Mantis"
    INDEX 01 06:00:43
  TRACK 03 AUDIO
    TITLE "Time Can Heal"
    PERFORMER "Praying Mantis"
    INDEX 01 12:36:20
  TRACK 04 AUDIO
    TITLE "39 Years"
    PERFORMER "Praying Mantis"
    INDEX 01 16:17:69
  TRACK 05 AUDIO
    TITLE "Gravity"
    PERFORMER "Praying Mantis"
    INDEX 01 20:35:55
  TRACK 06 AUDIO
    TITLE "Ghosts Of The Past"
    PERFORMER "Praying Mantis"
    INDEX 01 26:19:53
  TRACK 07 AUDIO
    TITLE "Destiny In Motion"
    PERFORMER "Praying Mantis"
    INDEX 01 31:24:31
  TRACK 08 AUDIO
    TITLE "THE Last Summer"
    PERFORMER "Praying Mantis"
    INDEX 01 36:36:48
  TRACK 09 AUDIO
    TITLE "Foreign Affair"
    PERFORMER "Praying Mantis"
    INDEX 01 41:14:57
  TRACK 10 AUDIO
    TITLE "Shadow Of Love"
    PERFORMER "Praying Mantis"
    INDEX 01 47:48:19
  TRACK 11 AUDIO
    TITLE "Final Destination"
    PERFORMER "Praying Mantis"
    INDEX 01 52:33:42
  TRACK 12 AUDIO
    TITLE "The Last Summer {Laid Bare Mix / Bonus Track}"
    PERFORMER "Praying Mantis"
    INDEX 01 57:53:05
- --


Показать сообщения:    

Текущее время: 20-Авг 19:48

Часовой пояс: UTC + 3


Вы не можете начинать темы
Вы не можете отвечать на сообщения
Вы не можете редактировать свои сообщения
Вы не можете удалять свои сообщения
Вы не можете голосовать в опросах
Вы не можете прикреплять файлы к сообщениям
Вы не можете скачивать файлы

!ВНИМАНИЕ!
Сайт не предоставляет электронные версии произведений, а занимается лишь коллекционированием и каталогизацией ссылок, присылаемых и публикуемых на форуме нашими читателями. Если вы являетесь правообладателем какого-либо представленного материала и не желаете, чтобы ссылка на него находилась в нашем каталоге, свяжитесь с нами, и мы незамедлительно удалим ее. Файлы для обмена на трекере предоставлены пользователями сайта, и администрация не несет ответственности за их содержание. Просьба не заливать файлы, защищенные авторскими правами, а также файлы нелегального содержания!