🚢 Приветствуем Вас на нашем трекере..🚢...Наш Девиз...Лучшее уже тут...☏...Присоединяйтесь...☏

Статистика раздачи | Обновить пиров
Качаю: [ 4 ]
Скачал: [ 2 ]
 
   
 
 

[Цитировать]

-VA - The Best - Dance Album (In The World... Ever!, 3CD)--
Год издания: 2019
Страна: n/a
Жанр: Dance
Продолжительность: 03:34:23-Лейбл издания: Sony Music
Страна-выпуска диска: EU
Номер по каталогу: 5388525-Формат: FLAC
Битрейт аудио: Lossless
Тип рипа: tracks +.cue
Наличие сканов в содержимом раздачи: да
-

Трэклист

CD 1 | 01:10:57


01. Calvin Harris - I'm Not Alone (3:33)
02. Mark Ronson Feat. Bruno Mars - Uptown Funk (4:30)
03. Junior Senior - Move Your Feet (3:02)
04. Eric Prydz - Call On Me (2:49)
05. The Shapeshifters - Lola's Theme (3:26)
06. Roger Sanchez - Another Chance (3:25)
07. Booty Luv - Boogie 2Nite (3:12)
08. DJ Fresh Feat. Sian Evans - Louder (3:26)
09. Ariana Grande Feat. Zedd - Break Free (3:34)
10. Sigma Feat. Paloma Faith - Changing (3:11)
11. P!nk - What About Us (3:56)
12. Tove Lo - Habit's (Stay High) (4:20)
13. Lana Del Rey & Cedric Gervais - Summertime Sadness (3:36)
14. Disclosure Feat. Sam Smith - Latch (4:18)
15. 99 Souls Feat. Destiny's Child & Brandy - The Girl Is Mine (3:34)
16. Rui Da Silva Feat. Cassandra - Touch Me (3:27)
17. Lasgo - Something (3:40)
18. September - Cry For You (2:45)
19. Tim Berg - Seek Bromance (3:21)
20. Robert Miles - Children (3:52)

CD 2 | 01:08:51


01. Avicii - Levels (3:22)
02. Little Mix - Black Magic (3:17)
03. Justin Bieber - What Do You Mean? (3:25)
04. Jonas Blue Feat. Dakota - Fast Car (3:32)
05. Mr. Probz - Waves (3:26)
06. Parra For Cuva Feat. Anna Naklab - Wicked Games (3:17)
07. OMI - Cheerleader (3:00)
08. Kungs Vs. Cookin' On 3 Burners - This Girl (3:15)
09. Faul & Wad Ad Vs. Pnau - Changes (3:21)
10. Naughty Boy Feat. Emeli Sande - Lifted (3:17)
11. Sia - Cheap Thrills (3:32)
12. Pharrell Williams - Happy (3:52)
13. Nicki Minaj - Starships (3:31)
14. Jennifer Lopez - Dance Again (4:09)
15. Ricky Martin - Come With Me (3:35)
16. Ciara Feat Justin Timberlake - Love Sex Magic (3:41)
17. Nick Jonas - Jealous (4:14)
18. David Zowie - House Every Weekend (3:03)
19. Duke Dumont Feat. A*M*E - Need U (100%) (2:53)
20. Secondcity - I Wanna Feel (3:07)

CD 3 | 01:14:35


01. Sigala - Easy Love (3:49)
02. Zedd Feat. Foxes - Clarity (4:33)
03. Sebastian Ingrosso & Alesso Feat. Ryan Tedder - Calling (Losing My Mind) (3:24)
04. Bastille - Of The Night (3:34)
05. Years & Years - Desire (3:24)
06. Room 5 Feat. Oliver Cheatham - Make Luv (3:32)
07. Madison Avenue - Don't Call Me Baby (3:49)
08. Infernal - From Paris To Berlin (2:58)
09. Alcazar - Crying At The Discoteque (3:51)
10. York - On The Beach (3:17)
11. Girls Aloud - Jump (For My Love) (3:39)
12. Nicole Scherzinger - Poison (3:47)
13. The Black Eyed Peas - Pump It (3:34)
14. Britney Spears - Gimme More (4:09)
15. Ke$ha - We R Who We R (3:25)
16. Justin Timberlake Feat. Timbaland - Sexy Back (4:03)
17. Chris Brown - Yeah 3X (4:02)
18. Taio Cruz - Break Your Heart (3:24)
19. Destiny's Child - Lose My Breath (4:02)
20. Whitney Houston Feat. DYME - My Love Is Your Love (4:20)
-

Лог создания рипа

CD 1

Exact Audio Copy V1.3 from 2. September 2016
EAC extraction logfile from 18. September 2019, 18:36
Various / The Best - Dance Album - In The World... Ever! - CD1
Used drive  : ATAPI   iHAS124   Y   Adapter: 1  ID: 0
Read mode               : Secure
Utilize accurate stream : Yes
Defeat audio cache      : No
Make use of C2 pointers : Yes
Read offset correction                      : 48
Overread into Lead-In and Lead-Out          : No
Fill up missing offset samples with silence : Yes
Delete leading and trailing silent blocks   : No
Null samples used in CRC calculations       : Yes
Used interface                              : Native Win32 interface for Win NT & 2000
Gap handling                                : Not detected, thus appended to previous track
Used output format              : User Defined Encoder
Selected bitrate                : 768 kBit/s
Quality                         : High
Add ID3 tag                     : No
Command line compressor         : C:\Program Files (x86)\Exact Audio Copy\FLAC\FLAC.EXE
Additional command line options : -6 -V -T "ARTIST=%artist%" -T "TITLE=%title%" -T "ALBUM=%albumtitle%" -T "DATE=%year%" -T "TRACKNUMBER=%tracknr%" -T "GENRE=%genre%" -T "COMMENT=%comment%" -T "BAND=%albuminterpret%" -T "ALBUMARTIST=%albuminterpret%" -T "COMPOSER=%composer%" %haslyrics%--tag-from-file=LYRICS="%lyricsfile%"%haslyrics% -T "DISCNUMBER=%cdnumber%" -T "TOTALDISCS=%totalcds%" -T "TOTALTRACKS=%numtracks%" %hascover%--picture="%coverfile%"%hascover% %source% -o %dest%
TOC of the extracted CD
     Track |   Start  |  Length  | Start sector | End sector
    ---------------------------------------------------------
        1  |  0:00.00 |  3:32.73 |         0    |    15972
        2  |  3:32.73 |  4:30.09 |     15973    |    36231
        3  |  8:03.07 |  3:02.01 |     36232    |    49882
        4  | 11:05.08 |  2:48.66 |     49883    |    62548
        5  | 13:53.74 |  3:25.64 |     62549    |    77987
        6  | 17:19.63 |  3:25.10 |     77988    |    93372
        7  | 20:44.73 |  3:12.35 |     93373    |   107807
        8  | 23:57.33 |  3:25.40 |    107808    |   123222
        9  | 27:22.73 |  3:33.69 |    123223    |   139266
       10  | 30:56.67 |  3:11.06 |    139267    |   153597
       11  | 34:07.73 |  3:55.57 |    153598    |   171279
       12  | 38:03.55 |  4:20.11 |    171280    |   190790
       13  | 42:23.66 |  3:35.62 |    190791    |   206977
       14  | 45:59.53 |  4:17.66 |    206978    |   226318
       15  | 50:17.44 |  3:33.52 |    226319    |   242345
       16  | 53:51.21 |  3:27.16 |    242346    |   257886
       17  | 57:18.37 |  3:40.14 |    257887    |   274400
       18  | 60:58.51 |  2:45.07 |    274401    |   286782
       19  | 63:43.58 |  3:20.71 |    286783    |   301853
       20  | 67:04.54 |  3:52.05 |    301854    |   319258
Track  1
     Filename A:\PsPBuRnOuT's MUSIC\THE BEST IN THE WORLD... EVER!\DANCE ALBUM\THE BEST - DANCE ALBUM - IN THE WORLD... EVER! - CD1\01.Calvin Harris - I'm Not Alone.wav
     Peak level 98.8 %
     Extraction speed 8.6 X
     Track quality 100.0 %
     Copy CRC B164EEFA
     Track not present in AccurateRip database
     Copy OK
Track  2
     Filename A:\PsPBuRnOuT's MUSIC\THE BEST IN THE WORLD... EVER!\DANCE ALBUM\THE BEST - DANCE ALBUM - IN THE WORLD... EVER! - CD1\02.Mark Ronson Feat. Bruno Mars - Uptown Funk.wav
     Peak level 95.9 %
     Extraction speed 9.6 X
     Track quality 100.0 %
     Copy CRC A8B5A441
     Track not present in AccurateRip database
     Copy OK
Track  3
     Filename A:\PsPBuRnOuT's MUSIC\THE BEST IN THE WORLD... EVER!\DANCE ALBUM\THE BEST - DANCE ALBUM - IN THE WORLD... EVER! - CD1\03.Junior Senior - Move Your Feet.wav
     Peak level 99.9 %
     Extraction speed 10.8 X
     Track quality 100.0 %
     Copy CRC 7FEFBF5F
     Track not present in AccurateRip database
     Copy OK
Track  4
     Filename A:\PsPBuRnOuT's MUSIC\THE BEST IN THE WORLD... EVER!\DANCE ALBUM\THE BEST - DANCE ALBUM - IN THE WORLD... EVER! - CD1\04.Eric Prydz - Call On Me.wav
     Peak level 90.5 %
     Extraction speed 10.9 X
     Track quality 99.8 %
     Copy CRC 518D8636
     Track not present in AccurateRip database
     Copy OK
Track  5
     Filename A:\PsPBuRnOuT's MUSIC\THE BEST IN THE WORLD... EVER!\DANCE ALBUM\THE BEST - DANCE ALBUM - IN THE WORLD... EVER! - CD1\05.The Shapeshifters - Lola's Theme.wav
     Peak level 93.3 %
     Extraction speed 11.5 X
     Track quality 99.8 %
     Copy CRC DB7A7199
     Track not present in AccurateRip database
     Copy OK
Track  6
     Filename A:\PsPBuRnOuT's MUSIC\THE BEST IN THE WORLD... EVER!\DANCE ALBUM\THE BEST - DANCE ALBUM - IN THE WORLD... EVER! - CD1\06.Roger Sanchez - Another Chance.wav
     Peak level 98.8 %
     Extraction speed 12.1 X
     Track quality 100.0 %
     Copy CRC 0A2FE9D4
     Track not present in AccurateRip database
     Copy OK
Track  7
     Filename A:\PsPBuRnOuT's MUSIC\THE BEST IN THE WORLD... EVER!\DANCE ALBUM\THE BEST - DANCE ALBUM - IN THE WORLD... EVER! - CD1\07.Booty Luv - Boogie 2Nite.wav
     Peak level 98.8 %
     Extraction speed 12.6 X
     Track quality 99.8 %
     Copy CRC 061D9D8B
     Track not present in AccurateRip database
     Copy OK
Track  8
     Filename A:\PsPBuRnOuT's MUSIC\THE BEST IN THE WORLD... EVER!\DANCE ALBUM\THE BEST - DANCE ALBUM - IN THE WORLD... EVER! - CD1\08.DJ Fresh Feat. Sian Evans - Louder.wav
     Peak level 83.1 %
     Extraction speed 13.2 X
     Track quality 99.8 %
     Copy CRC 993E7F20
     Track not present in AccurateRip database
     Copy OK
Track  9
     Filename A:\PsPBuRnOuT's MUSIC\THE BEST IN THE WORLD... EVER!\DANCE ALBUM\THE BEST - DANCE ALBUM - IN THE WORLD... EVER! - CD1\09.Ariana Grande Feat. Zedd - Break Free.wav
     Peak level 100.0 %
     Extraction speed 14.3 X
     Track quality 100.0 %
     Copy CRC 2B55B2D5
     Track not present in AccurateRip database
     Copy OK
Track 10
     Filename A:\PsPBuRnOuT's MUSIC\THE BEST IN THE WORLD... EVER!\DANCE ALBUM\THE BEST - DANCE ALBUM - IN THE WORLD... EVER! - CD1\10.Sigma Feat. Paloma Faith - Changing.wav
     Peak level 86.9 %
     Extraction speed 14.2 X
     Track quality 100.0 %
     Copy CRC E9B8132A
     Track not present in AccurateRip database
     Copy OK
Track 11
     Filename A:\PsPBuRnOuT's MUSIC\THE BEST IN THE WORLD... EVER!\DANCE ALBUM\THE BEST - DANCE ALBUM - IN THE WORLD... EVER! - CD1\11.P!nk - What About Us.wav
     Peak level 100.0 %
     Extraction speed 14.8 X
     Track quality 100.0 %
     Copy CRC 8F7F6964
     Track not present in AccurateRip database
     Copy OK
Track 12
     Filename A:\PsPBuRnOuT's MUSIC\THE BEST IN THE WORLD... EVER!\DANCE ALBUM\THE BEST - DANCE ALBUM - IN THE WORLD... EVER! - CD1\12.Tove Lo - Habit's (Stay High).wav
     Peak level 98.0 %
     Extraction speed 15.9 X
     Track quality 100.0 %
     Copy CRC FFFB86C6
     Track not present in AccurateRip database
     Copy OK
Track 13
     Filename A:\PsPBuRnOuT's MUSIC\THE BEST IN THE WORLD... EVER!\DANCE ALBUM\THE BEST - DANCE ALBUM - IN THE WORLD... EVER! - CD1\13.Lana Del Rey & Cedric Gervais - Summertime Sadness.wav
     Peak level 91.3 %
     Extraction speed 16.5 X
     Track quality 100.0 %
     Copy CRC A6EC6D6E
     Track not present in AccurateRip database
     Copy OK
Track 14
     Filename A:\PsPBuRnOuT's MUSIC\THE BEST IN THE WORLD... EVER!\DANCE ALBUM\THE BEST - DANCE ALBUM - IN THE WORLD... EVER! - CD1\14.Disclosure Feat. Sam Smith - Latch.wav
     Peak level 100.0 %
     Extraction speed 17.0 X
     Track quality 100.0 %
     Copy CRC 59FDB364
     Track not present in AccurateRip database
     Copy OK
Track 15
     Filename A:\PsPBuRnOuT's MUSIC\THE BEST IN THE WORLD... EVER!\DANCE ALBUM\THE BEST - DANCE ALBUM - IN THE WORLD... EVER! - CD1\15.99 Souls Feat. Destiny's Child & Brandy - The Girl Is Mine.wav
     Peak level 98.8 %
     Extraction speed 16.7 X
     Track quality 100.0 %
     Copy CRC 390BA57C
     Track not present in AccurateRip database
     Copy OK
Track 16
     Filename A:\PsPBuRnOuT's MUSIC\THE BEST IN THE WORLD... EVER!\DANCE ALBUM\THE BEST - DANCE ALBUM - IN THE WORLD... EVER! - CD1\16.Rui Da Silva Feat. Cassandra - Touch Me.wav
     Peak level 99.0 %
     Extraction speed 18.0 X
     Track quality 100.0 %
     Copy CRC B9534434
     Track not present in AccurateRip database
     Copy OK
Track 17
     Filename A:\PsPBuRnOuT's MUSIC\THE BEST IN THE WORLD... EVER!\DANCE ALBUM\THE BEST - DANCE ALBUM - IN THE WORLD... EVER! - CD1\17.Lasgo - Something.wav
     Peak level 100.0 %
     Extraction speed 17.4 X
     Track quality 99.9 %
     Copy CRC 2052DC44
     Track not present in AccurateRip database
     Copy OK
Track 18
     Filename A:\PsPBuRnOuT's MUSIC\THE BEST IN THE WORLD... EVER!\DANCE ALBUM\THE BEST - DANCE ALBUM - IN THE WORLD... EVER! - CD1\18.September - Cry For You.wav
     Peak level 100.0 %
     Extraction speed 17.7 X
     Track quality 99.8 %
     Copy CRC 5685C6DF
     Track not present in AccurateRip database
     Copy OK
Track 19
     Filename A:\PsPBuRnOuT's MUSIC\THE BEST IN THE WORLD... EVER!\DANCE ALBUM\THE BEST - DANCE ALBUM - IN THE WORLD... EVER! - CD1\19.Tim Berg - Seek Bromance.wav
     Peak level 99.0 %
     Extraction speed 18.2 X
     Track quality 100.0 %
     Copy CRC F4A71F8E
     Track not present in AccurateRip database
     Copy OK
Track 20
     Filename A:\PsPBuRnOuT's MUSIC\THE BEST IN THE WORLD... EVER!\DANCE ALBUM\THE BEST - DANCE ALBUM - IN THE WORLD... EVER! - CD1\20.Robert Miles - Children.wav
     Peak level 99.0 %
     Extraction speed 15.9 X
     Track quality 99.8 %
     Copy CRC 688EE4CC
     Track not present in AccurateRip database
     Copy OK
None of the tracks are present in the AccurateRip database
No errors occurred
End of status report

CD 2

Exact Audio Copy V1.3 from 2. September 2016
EAC extraction logfile from 18. September 2019, 19:25
Various / The Best - Dance Album - In The World... Ever! - CD2
Used drive  : ATAPI   iHAS124   Y   Adapter: 1  ID: 0
Read mode               : Secure
Utilize accurate stream : Yes
Defeat audio cache      : No
Make use of C2 pointers : Yes
Read offset correction                      : 48
Overread into Lead-In and Lead-Out          : No
Fill up missing offset samples with silence : Yes
Delete leading and trailing silent blocks   : No
Null samples used in CRC calculations       : Yes
Used interface                              : Native Win32 interface for Win NT & 2000
Gap handling                                : Not detected, thus appended to previous track
Used output format              : User Defined Encoder
Selected bitrate                : 768 kBit/s
Quality                         : High
Add ID3 tag                     : No
Command line compressor         : C:\Program Files (x86)\Exact Audio Copy\FLAC\FLAC.EXE
Additional command line options : -6 -V -T "ARTIST=%artist%" -T "TITLE=%title%" -T "ALBUM=%albumtitle%" -T "DATE=%year%" -T "TRACKNUMBER=%tracknr%" -T "GENRE=%genre%" -T "COMMENT=%comment%" -T "BAND=%albuminterpret%" -T "ALBUMARTIST=%albuminterpret%" -T "COMPOSER=%composer%" %haslyrics%--tag-from-file=LYRICS="%lyricsfile%"%haslyrics% -T "DISCNUMBER=%cdnumber%" -T "TOTALDISCS=%totalcds%" -T "TOTALTRACKS=%numtracks%" %hascover%--picture="%coverfile%"%hascover% %source% -o %dest%
TOC of the extracted CD
     Track |   Start  |  Length  | Start sector | End sector
    ---------------------------------------------------------
        1  |  0:00.00 |  3:21.58 |         0    |    15132
        2  |  3:21.58 |  3:17.20 |     15133    |    29927
        3  |  6:39.03 |  3:25.28 |     29928    |    45330
        4  | 10:04.31 |  3:32.31 |     45331    |    61261
        5  | 13:36.62 |  3:26.28 |     61262    |    76739
        6  | 17:03.15 |  3:16.64 |     76740    |    91503
        7  | 20:20.04 |  3:00.19 |     91504    |   105022
        8  | 23:20.23 |  3:14.70 |    105023    |   119642
        9  | 26:35.18 |  3:21.17 |    119643    |   134734
       10  | 29:56.35 |  3:17.14 |    134735    |   149523
       11  | 33:13.49 |  3:31.50 |    149524    |   165398
       12  | 36:45.24 |  3:51.68 |    165399    |   182791
       13  | 40:37.17 |  3:30.69 |    182792    |   198610
       14  | 44:08.11 |  4:09.33 |    198611    |   217318
       15  | 48:17.44 |  3:35.17 |    217319    |   233460
       16  | 51:52.61 |  3:40.53 |    233461    |   250013
       17  | 55:33.39 |  4:14.15 |    250014    |   269078
       18  | 59:47.54 |  3:03.07 |    269079    |   282810
       19  | 62:50.61 |  2:52.74 |    282811    |   295784
       20  | 65:43.60 |  3:06.71 |    295785    |   309805
Track  1
     Filename A:\PsPBuRnOuT's MUSIC\THE BEST IN THE WORLD... EVER!\DANCE ALBUM\THE BEST - DANCE ALBUM - IN THE WORLD... EVER! - CD2\01.Avicii - Levels.wav
     Peak level 100.0 %
     Extraction speed 12.9 X
     Track quality 100.0 %
     Copy CRC 17E77575
     Track not present in AccurateRip database
     Copy OK
Track  2
     Filename A:\PsPBuRnOuT's MUSIC\THE BEST IN THE WORLD... EVER!\DANCE ALBUM\THE BEST - DANCE ALBUM - IN THE WORLD... EVER! - CD2\02.Little Mix - Black Magic.wav
     Peak level 100.0 %
     Extraction speed 15.4 X
     Track quality 99.8 %
     Copy CRC DA690007
     Track not present in AccurateRip database
     Copy OK
Track  3
     Filename A:\PsPBuRnOuT's MUSIC\THE BEST IN THE WORLD... EVER!\DANCE ALBUM\THE BEST - DANCE ALBUM - IN THE WORLD... EVER! - CD2\03.Justin Bieber - What Do You Mean.wav
     Peak level 100.0 %
     Extraction speed 15.0 X
     Track quality 100.0 %
     Copy CRC 3461D224
     Track not present in AccurateRip database
     Copy OK
Track  4
     Filename A:\PsPBuRnOuT's MUSIC\THE BEST IN THE WORLD... EVER!\DANCE ALBUM\THE BEST - DANCE ALBUM - IN THE WORLD... EVER! - CD2\04.Jonas Blue Feat. Dakota - Fast Car.wav
     Peak level 100.0 %
     Extraction speed 20.3 X
     Track quality 100.0 %
     Copy CRC FF3567E6
     Track not present in AccurateRip database
     Copy OK
Track  5
     Filename A:\PsPBuRnOuT's MUSIC\THE BEST IN THE WORLD... EVER!\DANCE ALBUM\THE BEST - DANCE ALBUM - IN THE WORLD... EVER! - CD2\05.Mr. Probz - Waves.wav
     Peak level 99.7 %
     Extraction speed 21.6 X
     Track quality 100.0 %
     Copy CRC 09A00C9F
     Track not present in AccurateRip database
     Copy OK
Track  6
     Filename A:\PsPBuRnOuT's MUSIC\THE BEST IN THE WORLD... EVER!\DANCE ALBUM\THE BEST - DANCE ALBUM - IN THE WORLD... EVER! - CD2\06.Parra For Cuva Feat. Anna Naklab - Wicked Games.wav
     Peak level 94.3 %
     Extraction speed 22.1 X
     Track quality 100.0 %
     Copy CRC 996AE3BA
     Track not present in AccurateRip database
     Copy OK
Track  7
     Filename A:\PsPBuRnOuT's MUSIC\THE BEST IN THE WORLD... EVER!\DANCE ALBUM\THE BEST - DANCE ALBUM - IN THE WORLD... EVER! - CD2\07.OMI - Cheerleader.wav
     Peak level 93.4 %
     Extraction speed 23.6 X
     Track quality 100.0 %
     Copy CRC F3D43BCC
     Track not present in AccurateRip database
     Copy OK
Track  8
     Filename A:\PsPBuRnOuT's MUSIC\THE BEST IN THE WORLD... EVER!\DANCE ALBUM\THE BEST - DANCE ALBUM - IN THE WORLD... EVER! - CD2\08.Kungs Vs. Cookin' On 3 Burners - This Girl.wav
     Peak level 100.0 %
     Extraction speed 24.5 X
     Track quality 100.0 %
     Copy CRC 9ECB5246
     Track not present in AccurateRip database
     Copy OK
Track  9
     Filename A:\PsPBuRnOuT's MUSIC\THE BEST IN THE WORLD... EVER!\DANCE ALBUM\THE BEST - DANCE ALBUM - IN THE WORLD... EVER! - CD2\09.Faul & Wad Ad Vs. Pnau - Changes.wav
     Peak level 88.2 %
     Extraction speed 26.8 X
     Track quality 100.0 %
     Copy CRC E7B008C3
     Track not present in AccurateRip database
     Copy OK
Track 10
     Filename A:\PsPBuRnOuT's MUSIC\THE BEST IN THE WORLD... EVER!\DANCE ALBUM\THE BEST - DANCE ALBUM - IN THE WORLD... EVER! - CD2\10.Naughty Boy Feat. Emeli Sande - Lifted.wav
     Peak level 100.0 %
     Extraction speed 26.2 X
     Track quality 100.0 %
     Copy CRC 2B8DD0F5
     Track not present in AccurateRip database
     Copy OK
Track 11
     Filename A:\PsPBuRnOuT's MUSIC\THE BEST IN THE WORLD... EVER!\DANCE ALBUM\THE BEST - DANCE ALBUM - IN THE WORLD... EVER! - CD2\11.Sia - Cheap Thrills.wav
     Peak level 100.0 %
     Extraction speed 28.7 X
     Track quality 100.0 %
     Copy CRC 46225731
     Track not present in AccurateRip database
     Copy OK
Track 12
     Filename A:\PsPBuRnOuT's MUSIC\THE BEST IN THE WORLD... EVER!\DANCE ALBUM\THE BEST - DANCE ALBUM - IN THE WORLD... EVER! - CD2\12.Pharrell Williams - Happy.wav
     Peak level 96.6 %
     Extraction speed 28.1 X
     Track quality 100.0 %
     Copy CRC 87EB1398
     Track not present in AccurateRip database
     Copy OK
Track 13
     Filename A:\PsPBuRnOuT's MUSIC\THE BEST IN THE WORLD... EVER!\DANCE ALBUM\THE BEST - DANCE ALBUM - IN THE WORLD... EVER! - CD2\13.Nicki Minaj - Starships.wav
     Peak level 98.7 %
     Extraction speed 24.6 X
     Track quality 99.8 %
     Copy CRC 350E5AA4
     Track not present in AccurateRip database
     Copy OK
Track 14
     Filename A:\PsPBuRnOuT's MUSIC\THE BEST IN THE WORLD... EVER!\DANCE ALBUM\THE BEST - DANCE ALBUM - IN THE WORLD... EVER! - CD2\14.Jennifer Lopez - Dance Again.wav
     Peak level 98.8 %
     Extraction speed 24.3 X
     Track quality 100.0 %
     Copy CRC 181500F3
     Track not present in AccurateRip database
     Copy OK
Track 15
     Filename A:\PsPBuRnOuT's MUSIC\THE BEST IN THE WORLD... EVER!\DANCE ALBUM\THE BEST - DANCE ALBUM - IN THE WORLD... EVER! - CD2\15.Ricky Martin - Come With Me.wav
     Peak level 99.8 %
     Extraction speed 32.6 X
     Track quality 100.0 %
     Copy CRC 7BECC664
     Track not present in AccurateRip database
     Copy OK
Track 16
     Filename A:\PsPBuRnOuT's MUSIC\THE BEST IN THE WORLD... EVER!\DANCE ALBUM\THE BEST - DANCE ALBUM - IN THE WORLD... EVER! - CD2\16.Ciara  Feat Justin Timberlake - Love Sex Magic.wav
     Peak level 95.9 %
     Extraction speed 31.8 X
     Track quality 100.0 %
     Copy CRC 0AA18978
     Track not present in AccurateRip database
     Copy OK
Track 17
     Filename A:\PsPBuRnOuT's MUSIC\THE BEST IN THE WORLD... EVER!\DANCE ALBUM\THE BEST - DANCE ALBUM - IN THE WORLD... EVER! - CD2\17.Nick Jonas - Jealous.wav
     Peak level 100.0 %
     Extraction speed 32.6 X
     Track quality 100.0 %
     Copy CRC 040BFB87
     Track not present in AccurateRip database
     Copy OK
Track 18
     Filename A:\PsPBuRnOuT's MUSIC\THE BEST IN THE WORLD... EVER!\DANCE ALBUM\THE BEST - DANCE ALBUM - IN THE WORLD... EVER! - CD2\18.David Zowie - House Every Weekend.wav
     Peak level 100.0 %
     Extraction speed 33.1 X
     Track quality 100.0 %
     Copy CRC 567E7EA9
     Track not present in AccurateRip database
     Copy OK
Track 19
     Filename A:\PsPBuRnOuT's MUSIC\THE BEST IN THE WORLD... EVER!\DANCE ALBUM\THE BEST - DANCE ALBUM - IN THE WORLD... EVER! - CD2\19.Duke Dumont Feat. AxMxE - Need U (100%).wav
     Peak level 95.9 %
     Extraction speed 33.0 X
     Track quality 100.0 %
     Copy CRC 454BB84F
     Track not present in AccurateRip database
     Copy OK
Track 20
     Filename A:\PsPBuRnOuT's MUSIC\THE BEST IN THE WORLD... EVER!\DANCE ALBUM\THE BEST - DANCE ALBUM - IN THE WORLD... EVER! - CD2\20.Secondcity - I Wanna Feel.wav
     Peak level 98.8 %
     Extraction speed 4.8 X
     Track quality 99.3 %
     Copy CRC 0D9B5493
     Track not present in AccurateRip database
     Copy OK
None of the tracks are present in the AccurateRip database
No errors occurred
End of status report

CD 3

Exact Audio Copy V1.3 from 2. September 2016
EAC extraction logfile from 18. September 2019, 20:17
Various / The Best - Dance Album - In The World... Ever! - CD3
Used drive  : ATAPI   iHAS124   Y   Adapter: 1  ID: 0
Read mode               : Secure
Utilize accurate stream : Yes
Defeat audio cache      : No
Make use of C2 pointers : Yes
Read offset correction                      : 48
Overread into Lead-In and Lead-Out          : No
Fill up missing offset samples with silence : Yes
Delete leading and trailing silent blocks   : No
Null samples used in CRC calculations       : Yes
Used interface                              : Native Win32 interface for Win NT & 2000
Gap handling                                : Not detected, thus appended to previous track
Used output format              : User Defined Encoder
Selected bitrate                : 768 kBit/s
Quality                         : High
Add ID3 tag                     : No
Command line compressor         : C:\Program Files (x86)\Exact Audio Copy\FLAC\FLAC.EXE
Additional command line options : -6 -V -T "ARTIST=%artist%" -T "TITLE=%title%" -T "ALBUM=%albumtitle%" -T "DATE=%year%" -T "TRACKNUMBER=%tracknr%" -T "GENRE=%genre%" -T "COMMENT=%comment%" -T "BAND=%albuminterpret%" -T "ALBUMARTIST=%albuminterpret%" -T "COMPOSER=%composer%" %haslyrics%--tag-from-file=LYRICS="%lyricsfile%"%haslyrics% -T "DISCNUMBER=%cdnumber%" -T "TOTALDISCS=%totalcds%" -T "TOTALTRACKS=%numtracks%" %hascover%--picture="%coverfile%"%hascover% %source% -o %dest%
TOC of the extracted CD
     Track |   Start  |  Length  | Start sector | End sector
    ---------------------------------------------------------
        1  |  0:00.00 |  3:48.53 |         0    |    17152
        2  |  3:48.53 |  4:33.18 |     17153    |    37645
        3  |  8:21.71 |  3:24.08 |     37646    |    52953
        4  | 11:46.04 |  3:34.16 |     52954    |    69019
        5  | 15:20.20 |  3:24.09 |     69020    |    84328
        6  | 18:44.29 |  3:31.64 |     84329    |   100217
        7  | 22:16.18 |  3:48.72 |    100218    |   117389
        8  | 26:05.15 |  2:57.60 |    117390    |   130724
        9  | 29:03.00 |  3:51.01 |    130725    |   148050
       10  | 32:54.01 |  3:16.38 |    148051    |   162788
       11  | 36:10.39 |  3:38.66 |    162789    |   179204
       12  | 39:49.30 |  3:46.62 |    179205    |   196216
       13  | 43:36.17 |  3:34.19 |    196217    |   212285
       14  | 47:10.36 |  4:09.37 |    212286    |   230997
       15  | 51:19.73 |  3:24.57 |    230998    |   246354
       16  | 54:44.55 |  4:02.70 |    246355    |   264574
       17  | 58:47.50 |  4:01.50 |    264575    |   282699
       18  | 62:49.25 |  3:23.51 |    282700    |   297975
       19  | 66:13.01 |  4:02.10 |    297976    |   316135
       20  | 70:15.11 |  4:20.03 |    316136    |   335638
Track  1
     Filename A:\PsPBuRnOuT's MUSIC\THE BEST IN THE WORLD... EVER!\DANCE ALBUM\THE BEST - DANCE ALBUM - IN THE WORLD... EVER! - CD3\01.Sigala - Easy Love.wav
     Peak level 99.0 %
     Extraction speed 8.7 X
     Track quality 100.0 %
     Copy CRC F4C6AAA0
     Track not present in AccurateRip database
     Copy OK
Track  2
     Filename A:\PsPBuRnOuT's MUSIC\THE BEST IN THE WORLD... EVER!\DANCE ALBUM\THE BEST - DANCE ALBUM - IN THE WORLD... EVER! - CD3\02.Zedd Feat. Foxes - Clarity.wav
     Peak level 100.0 %
     Extraction speed 10.3 X
     Track quality 100.0 %
     Copy CRC 23FEB00A
     Track not present in AccurateRip database
     Copy OK
Track  3
     Filename A:\PsPBuRnOuT's MUSIC\THE BEST IN THE WORLD... EVER!\DANCE ALBUM\THE BEST - DANCE ALBUM - IN THE WORLD... EVER! - CD3\03.Sebastian Ingrosso & Alesso Feat. Ryan Tedder - Calling (Losing My Mind).wav
     Peak level 97.4 %
     Extraction speed 11.3 X
     Track quality 100.0 %
     Copy CRC AEA7DA79
     Track not present in AccurateRip database
     Copy OK
Track  4
     Filename A:\PsPBuRnOuT's MUSIC\THE BEST IN THE WORLD... EVER!\DANCE ALBUM\THE BEST - DANCE ALBUM - IN THE WORLD... EVER! - CD3\04.Bastille - Of The Night.wav
     Peak level 100.0 %
     Extraction speed 12.0 X
     Track quality 100.0 %
     Copy CRC 176C4778
     Track not present in AccurateRip database
     Copy OK
Track  5
     Filename A:\PsPBuRnOuT's MUSIC\THE BEST IN THE WORLD... EVER!\DANCE ALBUM\THE BEST - DANCE ALBUM - IN THE WORLD... EVER! - CD3\05.Years & Years - Desire.wav
     Peak level 100.0 %
     Extraction speed 12.2 X
     Track quality 100.0 %
     Copy CRC 8AE79AEA
     Track not present in AccurateRip database
     Copy OK
Track  6
     Filename A:\PsPBuRnOuT's MUSIC\THE BEST IN THE WORLD... EVER!\DANCE ALBUM\THE BEST - DANCE ALBUM - IN THE WORLD... EVER! - CD3\06.Room 5 Feat. Oliver Cheatham - Make Luv.wav
     Peak level 100.0 %
     Extraction speed 12.7 X
     Track quality 100.0 %
     Copy CRC D7AF8C44
     Track not present in AccurateRip database
     Copy OK
Track  7
     Filename A:\PsPBuRnOuT's MUSIC\THE BEST IN THE WORLD... EVER!\DANCE ALBUM\THE BEST - DANCE ALBUM - IN THE WORLD... EVER! - CD3\07.Madison Avenue - Don't Call Me Baby.wav
     Peak level 98.8 %
     Extraction speed 13.8 X
     Track quality 100.0 %
     Copy CRC FA2368D2
     Track not present in AccurateRip database
     Copy OK
Track  8
     Filename A:\PsPBuRnOuT's MUSIC\THE BEST IN THE WORLD... EVER!\DANCE ALBUM\THE BEST - DANCE ALBUM - IN THE WORLD... EVER! - CD3\08.Infernal - From Paris To Berlin.wav
     Peak level 100.0 %
     Extraction speed 13.7 X
     Track quality 99.8 %
     Copy CRC 495995CD
     Track not present in AccurateRip database
     Copy OK
Track  9
     Filename A:\PsPBuRnOuT's MUSIC\THE BEST IN THE WORLD... EVER!\DANCE ALBUM\THE BEST - DANCE ALBUM - IN THE WORLD... EVER! - CD3\09.Alcazar - Crying At The Discoteque.wav
     Peak level 93.5 %
     Extraction speed 14.4 X
     Track quality 99.9 %
     Copy CRC 8B0B863C
     Track not present in AccurateRip database
     Copy OK
Track 10
     Filename A:\PsPBuRnOuT's MUSIC\THE BEST IN THE WORLD... EVER!\DANCE ALBUM\THE BEST - DANCE ALBUM - IN THE WORLD... EVER! - CD3\10.York - On The Beach.wav
     Peak level 95.9 %
     Extraction speed 14.9 X
     Track quality 100.0 %
     Copy CRC F37BFA3E
     Track not present in AccurateRip database
     Copy OK
Track 11
     Filename A:\PsPBuRnOuT's MUSIC\THE BEST IN THE WORLD... EVER!\DANCE ALBUM\THE BEST - DANCE ALBUM - IN THE WORLD... EVER! - CD3\11.Girls Aloud - Jump (For My Love).wav
     Peak level 100.0 %
     Extraction speed 15.4 X
     Track quality 100.0 %
     Copy CRC 94864C91
     Track not present in AccurateRip database
     Copy OK
Track 12
     Filename A:\PsPBuRnOuT's MUSIC\THE BEST IN THE WORLD... EVER!\DANCE ALBUM\THE BEST - DANCE ALBUM - IN THE WORLD... EVER! - CD3\12.Nicole Scherzinger - Poison.wav
     Peak level 100.0 %
     Extraction speed 15.7 X
     Track quality 100.0 %
     Copy CRC 1D676949
     Track not present in AccurateRip database
     Copy OK
Track 13
     Filename A:\PsPBuRnOuT's MUSIC\THE BEST IN THE WORLD... EVER!\DANCE ALBUM\THE BEST - DANCE ALBUM - IN THE WORLD... EVER! - CD3\13.The Black Eyed Peas - Pump It.wav
     Peak level 100.0 %
     Extraction speed 16.9 X
     Track quality 100.0 %
     Copy CRC 8F3269A5
     Track not present in AccurateRip database
     Copy OK
Track 14
     Filename A:\PsPBuRnOuT's MUSIC\THE BEST IN THE WORLD... EVER!\DANCE ALBUM\THE BEST - DANCE ALBUM - IN THE WORLD... EVER! - CD3\14.Britney Spears - Gimme More.wav
     Peak level 93.5 %
     Extraction speed 16.8 X
     Track quality 99.9 %
     Copy CRC FD7DEC89
     Track not present in AccurateRip database
     Copy OK
Track 15
     Filename A:\PsPBuRnOuT's MUSIC\THE BEST IN THE WORLD... EVER!\DANCE ALBUM\THE BEST - DANCE ALBUM - IN THE WORLD... EVER! - CD3\15.Ke$ha - We R Who We R.wav
     Peak level 99.9 %
     Extraction speed 17.3 X
     Track quality 100.0 %
     Copy CRC AC64CADF
     Track not present in AccurateRip database
     Copy OK
Track 16
     Filename A:\PsPBuRnOuT's MUSIC\THE BEST IN THE WORLD... EVER!\DANCE ALBUM\THE BEST - DANCE ALBUM - IN THE WORLD... EVER! - CD3\16.Justin Timberlake Feat. Timbaland - Sexy Back.wav
     Peak level 98.8 %
     Extraction speed 18.5 X
     Track quality 100.0 %
     Copy CRC 964CE1EC
     Track not present in AccurateRip database
     Copy OK
Track 17
     Filename A:\PsPBuRnOuT's MUSIC\THE BEST IN THE WORLD... EVER!\DANCE ALBUM\THE BEST - DANCE ALBUM - IN THE WORLD... EVER! - CD3\17.Chris Brown - Yeah 3X.wav
     Peak level 99.8 %
     Extraction speed 19.0 X
     Track quality 100.0 %
     Copy CRC A914966B
     Track not present in AccurateRip database
     Copy OK
Track 18
     Filename A:\PsPBuRnOuT's MUSIC\THE BEST IN THE WORLD... EVER!\DANCE ALBUM\THE BEST - DANCE ALBUM - IN THE WORLD... EVER! - CD3\18.Taio Cruz - Break Your Heart.wav
     Peak level 100.0 %
     Extraction speed 19.5 X
     Track quality 100.0 %
     Copy CRC 4B689A9F
     Track not present in AccurateRip database
     Copy OK
Track 19
     Filename A:\PsPBuRnOuT's MUSIC\THE BEST IN THE WORLD... EVER!\DANCE ALBUM\THE BEST - DANCE ALBUM - IN THE WORLD... EVER! - CD3\19.Destiny's Child - Lose My Breath.wav
     Peak level 99.8 %
     Extraction speed 18.8 X
     Track quality 100.0 %
     Copy CRC 10D10439
     Track not present in AccurateRip database
     Copy OK
Track 20
     Filename A:\PsPBuRnOuT's MUSIC\THE BEST IN THE WORLD... EVER!\DANCE ALBUM\THE BEST - DANCE ALBUM - IN THE WORLD... EVER! - CD3\20.Whitney Houston Feat. DYME - My Love Is Your Love.wav
     Peak level 92.2 %
     Extraction speed 19.4 X
     Track quality 99.9 %
     Copy CRC 6A964517
     Track not present in AccurateRip database
     Copy OK
None of the tracks are present in the AccurateRip database
No errors occurred
End of status report

Индексная карта (non-compilant .cue)

CD 1

REM GENRE Dance
REM DATE 2019
REM DISCID 1710A014
REM DISCNUMBER 1
REM TOTALDISCS 3
REM COMMENT "Exact Audio Copy V1.3"
PERFORMER "Various"
TITLE "The Best - Dance Album - In The World... Ever! - CD1"
FILE "01.Calvin Harris - I'm Not Alone.flac" WAVE
  TRACK 01 AUDIO
    PERFORMER "Calvin Harris"
    TITLE "I'm Not Alone"
    INDEX 01 00:00:00
FILE "02.Mark Ronson Feat. Bruno Mars - Uptown Funk.flac" WAVE
  TRACK 02 AUDIO
    PERFORMER "Mark Ronson Feat. Bruno Mars"
    TITLE "Uptown Funk"
    INDEX 01 00:00:00
FILE "03.Junior Senior - Move Your Feet.flac" WAVE
  TRACK 03 AUDIO
    PERFORMER "Junior Senior"
    TITLE "Move Your Feet"
    INDEX 01 00:00:00
FILE "04.Eric Prydz - Call On Me.flac" WAVE
  TRACK 04 AUDIO
    PERFORMER "Eric Prydz"
    TITLE "Call On Me"
    INDEX 01 00:00:00
FILE "05.The Shapeshifters - Lola's Theme.flac" WAVE
  TRACK 05 AUDIO
    PERFORMER "The Shapeshifters"
    TITLE "Lola's Theme"
    INDEX 01 00:00:00
FILE "06.Roger Sanchez - Another Chance.flac" WAVE
  TRACK 06 AUDIO
    PERFORMER "Roger Sanchez"
    TITLE "Another Chance"
    INDEX 01 00:00:00
FILE "07.Booty Luv - Boogie 2Nite.flac" WAVE
  TRACK 07 AUDIO
    PERFORMER "Booty Luv"
    TITLE "Boogie 2Nite"
    INDEX 01 00:00:00
FILE "08.DJ Fresh Feat. Sian Evans - Louder.flac" WAVE
  TRACK 08 AUDIO
    PERFORMER "DJ Fresh Feat. Sian Evans"
    TITLE "Louder"
    INDEX 01 00:00:00
FILE "09.Ariana Grande Feat. Zedd - Break Free.flac" WAVE
  TRACK 09 AUDIO
    PERFORMER "Ariana Grande Feat. Zedd"
    TITLE "Break Free"
    INDEX 01 00:00:00
FILE "10.Sigma Feat. Paloma Faith - Changing.flac" WAVE
  TRACK 10 AUDIO
    PERFORMER "Sigma Feat. Paloma Faith"
    TITLE "Changing"
    INDEX 01 00:00:00
FILE "11.P!nk - What About Us.flac" WAVE
  TRACK 11 AUDIO
    PERFORMER "P!nk"
    TITLE "What About Us"
    INDEX 01 00:00:00
FILE "12.Tove Lo - Habit's (Stay High).flac" WAVE
  TRACK 12 AUDIO
    PERFORMER "Tove Lo"
    TITLE "Habit's (Stay High)"
    INDEX 01 00:00:00
FILE "13.Lana Del Rey & Cedric Gervais - Summertime Sadness.flac" WAVE
  TRACK 13 AUDIO
    PERFORMER "Lana Del Rey & Cedric Gervais"
    TITLE "Summertime Sadness"
    INDEX 01 00:00:00
FILE "14.Disclosure Feat. Sam Smith - Latch.flac" WAVE
  TRACK 14 AUDIO
    PERFORMER "Disclosure Feat. Sam Smith"
    TITLE "Latch"
    INDEX 01 00:00:00
FILE "15.99 Souls Feat. Destiny's Child & Brandy - The Girl Is Mine.flac" WAVE
  TRACK 15 AUDIO
    PERFORMER "99 Souls Feat. Destiny's Child & Brandy"
    TITLE "The Girl Is Mine"
    INDEX 01 00:00:00
FILE "16.Rui Da Silva Feat. Cassandra - Touch Me.flac" WAVE
  TRACK 16 AUDIO
    PERFORMER "Rui Da Silva Feat. Cassandra"
    TITLE "Touch Me"
    INDEX 01 00:00:00
FILE "17.Lasgo - Something.flac" WAVE
  TRACK 17 AUDIO
    PERFORMER "Lasgo"
    TITLE "Something"
    INDEX 01 00:00:00
FILE "18.September - Cry For You.flac" WAVE
  TRACK 18 AUDIO
    PERFORMER "September"
    TITLE "Cry For You"
    INDEX 01 00:00:00
FILE "19.Tim Berg - Seek Bromance.flac" WAVE
  TRACK 19 AUDIO
    PERFORMER "Tim Berg"
    TITLE "Seek Bromance"
    INDEX 01 00:00:00
FILE "20.Robert Miles - Children.flac" WAVE
  TRACK 20 AUDIO
    PERFORMER "Robert Miles"
    TITLE "Children"
    INDEX 01 00:00:00

CD 2

REM GENRE Dance
REM DATE 2019
REM DISCID 25102214
REM DISCNUMBER 2
REM TOTALDISCS 3
REM COMMENT "Exact Audio Copy V1.3"
PERFORMER "Various"
TITLE "The Best - Dance Album - In The World... Ever! - CD2"
FILE "01.Avicii - Levels.flac" WAVE
  TRACK 01 AUDIO
    PERFORMER "Avicii"
    TITLE "Levels"
    INDEX 01 00:00:00
FILE "02.Little Mix - Black Magic.flac" WAVE
  TRACK 02 AUDIO
    PERFORMER "Little Mix"
    TITLE "Black Magic"
    INDEX 01 00:00:00
FILE "03.Justin Bieber - What Do You Mean.flac" WAVE
  TRACK 03 AUDIO
    PERFORMER "Justin Bieber"
    TITLE "What Do You Mean?"
    INDEX 01 00:00:00
FILE "04.Jonas Blue Feat. Dakota - Fast Car.flac" WAVE
  TRACK 04 AUDIO
    PERFORMER "Jonas Blue Feat. Dakota"
    TITLE "Fast Car"
    INDEX 01 00:00:00
FILE "05.Mr. Probz - Waves.flac" WAVE
  TRACK 05 AUDIO
    PERFORMER "Mr. Probz"
    TITLE "Waves"
    INDEX 01 00:00:00
FILE "06.Parra For Cuva Feat. Anna Naklab - Wicked Games.flac" WAVE
  TRACK 06 AUDIO
    PERFORMER "Parra For Cuva Feat. Anna Naklab"
    TITLE "Wicked Games"
    INDEX 01 00:00:00
FILE "07.OMI - Cheerleader.flac" WAVE
  TRACK 07 AUDIO
    PERFORMER "OMI"
    TITLE "Cheerleader"
    INDEX 01 00:00:00
FILE "08.Kungs Vs. Cookin' On 3 Burners - This Girl.flac" WAVE
  TRACK 08 AUDIO
    PERFORMER "Kungs Vs. Cookin' On 3 Burners"
    TITLE "This Girl"
    INDEX 01 00:00:00
FILE "09.Faul & Wad Ad Vs. Pnau - Changes.flac" WAVE
  TRACK 09 AUDIO
    PERFORMER "Faul & Wad Ad Vs. Pnau"
    TITLE "Changes"
    INDEX 01 00:00:00
FILE "10.Naughty Boy Feat. Emeli Sande - Lifted.flac" WAVE
  TRACK 10 AUDIO
    PERFORMER "Naughty Boy Feat. Emeli Sande"
    TITLE "Lifted"
    INDEX 01 00:00:00
FILE "11.Sia - Cheap Thrills.flac" WAVE
  TRACK 11 AUDIO
    PERFORMER "Sia"
    TITLE "Cheap Thrills"
    INDEX 01 00:00:00
FILE "12.Pharrell Williams - Happy.flac" WAVE
  TRACK 12 AUDIO
    PERFORMER "Pharrell Williams"
    TITLE "Happy"
    INDEX 01 00:00:00
FILE "13.Nicki Minaj - Starships.flac" WAVE
  TRACK 13 AUDIO
    PERFORMER "Nicki Minaj"
    TITLE "Starships"
    INDEX 01 00:00:00
FILE "14.Jennifer Lopez - Dance Again.flac" WAVE
  TRACK 14 AUDIO
    PERFORMER "Jennifer Lopez"
    TITLE "Dance Again"
    INDEX 01 00:00:00
FILE "15.Ricky Martin - Come With Me.flac" WAVE
  TRACK 15 AUDIO
    PERFORMER "Ricky Martin"
    TITLE "Come With Me"
    INDEX 01 00:00:00
FILE "16.Ciara  Feat Justin Timberlake - Love Sex Magic.flac" WAVE
  TRACK 16 AUDIO
    PERFORMER "Ciara  Feat Justin Timberlake"
    TITLE "Love Sex Magic"
    INDEX 01 00:00:00
FILE "17.Nick Jonas - Jealous.flac" WAVE
  TRACK 17 AUDIO
    PERFORMER "Nick Jonas"
    TITLE "Jealous"
    INDEX 01 00:00:00
FILE "18.David Zowie - House Every Weekend.flac" WAVE
  TRACK 18 AUDIO
    PERFORMER "David Zowie"
    TITLE "House Every Weekend"
    INDEX 01 00:00:00
FILE "19.Duke Dumont Feat. A.M.E - Need U (100%).flac" WAVE
  TRACK 19 AUDIO
    PERFORMER "Duke Dumont Feat. A*M*E"
    TITLE "Need U (100%)"
    INDEX 01 00:00:00
FILE "20.Secondcity - I Wanna Feel.flac" WAVE
  TRACK 20 AUDIO
    PERFORMER "Secondcity"
    TITLE "I Wanna Feel"
    INDEX 01 00:00:00

CD 3

REM GENRE Dance
REM DATE 2019
REM DISCID 25117B14
REM DISCNUMBER 3
REM TOTALDISCS 3
REM COMMENT "Exact Audio Copy V1.3"
PERFORMER "Various"
TITLE "The Best - Dance Album - In The World... Ever! - CD3"
FILE "01.Sigala - Easy Love.flac" WAVE
  TRACK 01 AUDIO
    PERFORMER "Sigala"
    TITLE "Easy Love"
    INDEX 01 00:00:00
FILE "02.Zedd Feat. Foxes - Clarity.flac" WAVE
  TRACK 02 AUDIO
    PERFORMER "Zedd Feat. Foxes"
    TITLE "Clarity"
    INDEX 01 00:00:00
FILE "03.Sebastian Ingrosso & Alesso Feat. Ryan Tedder - Calling (Losing My Mind).flac" WAVE
  TRACK 03 AUDIO
    PERFORMER "Sebastian Ingrosso & Alesso Feat. Ryan Tedder"
    TITLE "Calling (Losing My Mind)"
    INDEX 01 00:00:00
FILE "04.Bastille - Of The Night.flac" WAVE
  TRACK 04 AUDIO
    PERFORMER "Bastille"
    TITLE "Of The Night"
    INDEX 01 00:00:00
FILE "05.Years & Years - Desire.flac" WAVE
  TRACK 05 AUDIO
    PERFORMER "Years & Years"
    TITLE "Desire"
    INDEX 01 00:00:00
FILE "06.Room 5 Feat. Oliver Cheatham - Make Luv.flac" WAVE
  TRACK 06 AUDIO
    PERFORMER "Room 5 Feat. Oliver Cheatham"
    TITLE "Make Luv"
    INDEX 01 00:00:00
FILE "07.Madison Avenue - Don't Call Me Baby.flac" WAVE
  TRACK 07 AUDIO
    PERFORMER "Madison Avenue"
    TITLE "Don't Call Me Baby"
    INDEX 01 00:00:00
FILE "08.Infernal - From Paris To Berlin.flac" WAVE
  TRACK 08 AUDIO
    PERFORMER "Infernal"
    TITLE "From Paris To Berlin"
    INDEX 01 00:00:00
FILE "09.Alcazar - Crying At The Discoteque.flac" WAVE
  TRACK 09 AUDIO
    PERFORMER "Alcazar"
    TITLE "Crying At The Discoteque"
    INDEX 01 00:00:00
FILE "10.York - On The Beach.flac" WAVE
  TRACK 10 AUDIO
    PERFORMER "York"
    TITLE "On The Beach"
    INDEX 01 00:00:00
FILE "11.Girls Aloud - Jump (For My Love).flac" WAVE
  TRACK 11 AUDIO
    PERFORMER "Girls Aloud"
    TITLE "Jump (For My Love)"
    INDEX 01 00:00:00
FILE "12.Nicole Scherzinger - Poison.flac" WAVE
  TRACK 12 AUDIO
    PERFORMER "Nicole Scherzinger"
    TITLE "Poison"
    INDEX 01 00:00:00
FILE "13.The Black Eyed Peas - Pump It.flac" WAVE
  TRACK 13 AUDIO
    PERFORMER "The Black Eyed Peas"
    TITLE "Pump It"
    INDEX 01 00:00:00
FILE "14.Britney Spears - Gimme More.flac" WAVE
  TRACK 14 AUDIO
    PERFORMER "Britney Spears"
    TITLE "Gimme More"
    INDEX 01 00:00:00
FILE "15.Ke$ha - We R Who We R.flac" WAVE
  TRACK 15 AUDIO
    PERFORMER "Ke$ha"
    TITLE "We R Who We R"
    INDEX 01 00:00:00
FILE "16.Justin Timberlake Feat. Timbaland - Sexy Back.flac" WAVE
  TRACK 16 AUDIO
    PERFORMER "Justin Timberlake Feat. Timbaland"
    TITLE "Sexy Back"
    INDEX 01 00:00:00
FILE "17.Chris Brown - Yeah 3X.flac" WAVE
  TRACK 17 AUDIO
    PERFORMER "Chris Brown"
    TITLE "Yeah 3X"
    INDEX 01 00:00:00
FILE "18.Taio Cruz - Break Your Heart.flac" WAVE
  TRACK 18 AUDIO
    PERFORMER "Taio Cruz"
    TITLE "Break Your Heart"
    INDEX 01 00:00:00
FILE "19.Destiny's Child - Lose My Breath.flac" WAVE
  TRACK 19 AUDIO
    PERFORMER "Destiny's Child"
    TITLE "Lose My Breath"
    INDEX 01 00:00:00
FILE "20.Whitney Houston Feat. DYME - My Love Is Your Love.flac" WAVE
  TRACK 20 AUDIO
    PERFORMER "Whitney Houston Feat. DYME"
    TITLE "My Love Is Your Love"
    INDEX 01 00:00:00
--


Показать сообщения:    

Текущее время: 23-Окт 08:29

Часовой пояс: UTC + 3


Вы не можете начинать темы
Вы не можете отвечать на сообщения
Вы не можете редактировать свои сообщения
Вы не можете удалять свои сообщения
Вы не можете голосовать в опросах
Вы не можете прикреплять файлы к сообщениям
Вы не можете скачивать файлы

!ВНИМАНИЕ!
Сайт не предоставляет электронные версии произведений, а занимается лишь коллекционированием и каталогизацией ссылок, присылаемых и публикуемых на форуме нашими читателями. Если вы являетесь правообладателем какого-либо представленного материала и не желаете, чтобы ссылка на него находилась в нашем каталоге, свяжитесь с нами, и мы незамедлительно удалим ее. Файлы для обмена на трекере предоставлены пользователями сайта, и администрация не несет ответственности за их содержание. Просьба не заливать файлы, защищенные авторскими правами, а также файлы нелегального содержания!