🚢 Приветствуем Вас на нашем трекере..🚢...Наш Девиз...Лучшее уже тут...☏...Присоединяйтесь...☏

Статистика раздачи | Обновить пиров
Скачал: [ 1 ]
 
   
 
 

[Цитировать]

-Marius Danielsen's Legend Of Valley Doom - Discography (2CD)--
Год издания: 2015, 2018
Страна: Norway
Жанр: Symphonic Power Metal
Продолжительность: 02:22:51-Лейбл издания: Crime Records
Страна-выпуска диска: EU
Номер по каталогу: CR15.0012-CD, CR18.0022-CD -Формат: FLAC
Битрейт аудио: Lossless
Тип рипа: image +.cue
Наличие сканов в содержимом раздачи: да
-

Трэклист

CD 1 - 2015 - The Legend Of Valley Doom Part 1 | 01:04:44


01. Intro (1:04)
02. The Battle of Bargor-Zun (7:36)
03. Prophecy of The Warrior King (5:11)
04. Chamber of Wisdom (6:04)
05. Mirror of Truth (5:26)
06. Haunting My Dreams (3:58)
07. The Legend of Valley Doom (14:23)
08. Lost In A Dream (5:00)
09. Raise Your Shields (4:38)
10. Free As the Wind (3:27)
11. Fallen Heroes of Our Land (5:19)
12. Outro (2:38)

CD 2 - 2015 - The Legend Of Valley Doom Part 2 | 01:18:07


01. King Thorgan's Hymn (3:38)
02. Rise of the Dark Empire (6:49)
03. Gates of Eunomia (2:29)
04. Tower of Knowledge (5:53)
05. Visions of the Night (6:08)
06. Crystal Mountains (7:15)
07. By the Dragon's Breath (6:19)
08. Under the Silver Moon (6:24)
09. Angel of Light (6:28)
10. Princess Lariana's Forest (9:23)
11. Temple of the Ancient God (7:56)
12. We Stand Together (3:34)
13. Tower of Knowledge (Bonus Track Vinny Appice Version) (5:51)
-

Лог создания рипа

CD 1 -2015 - The Legend Of Valley Doom Part 1

Exact Audio Copy V1.1 from 23. June 2015
EAC extraction logfile from 25. November 2015, 13:55
Marius Danielsen's Legend Of Valley Doom / The Legend Of Valley Doom Part 1
Used drive  : HP      DVD Writer 1170d   Adapter: 1  ID: 1
Read mode               : Secure
Utilize accurate stream : Yes
Defeat audio cache      : Yes
Make use of C2 pointers : No
Read offset correction                      : 6
Overread into Lead-In and Lead-Out          : No
Fill up missing offset samples with silence : Yes
Delete leading and trailing silent blocks   : No
Null samples used in CRC calculations       : Yes
Used interface                              : Native Win32 interface for Win NT & 2000
Used output format              : User Defined Encoder
Selected bitrate                : 1024 kBit/s
Quality                         : Low
Add ID3 tag                     : No
Command line compressor         : C:\Program Files (x86)\Exact Audio Copy\FLAC\FLAC.EXE
Additional command line options : -V -8 -T "Date=%year%" -T "Genre=%genre%" -T"COMMENT=Ripped by Ungern666" -8 -V %source%
TOC of the extracted CD
     Track |   Start  |  Length  | Start sector | End sector
    ---------------------------------------------------------
        1  |  0:00.00 |  1:03.48 |         0    |     4772
        2  |  1:03.48 |  7:35.63 |      4773    |    38960
        3  |  8:39.36 |  5:10.72 |     38961    |    62282
        4  | 13:50.33 |  6:04.23 |     62283    |    89605
        5  | 19:54.56 |  5:25.40 |     89606    |   114020
        6  | 25:20.21 |  3:57.73 |    114021    |   131868
        7  | 29:18.19 | 14:23.31 |    131869    |   196624
        8  | 43:41.50 |  5:00.11 |    196625    |   219135
        9  | 48:41.61 |  4:38.23 |    219136    |   240008
       10  | 53:20.09 |  3:26.67 |    240009    |   255525
       11  | 56:47.01 |  5:18.42 |    255526    |   279417
       12  | 62:05.43 |  2:38.20 |    279418    |   291287
Range status and errors
Selected range
     Filename C:\EAC\ Marius Danielsen's Legend Of Valley Doom - The Legend Of Valley Doom Part 1.wav
     Peak level 100.0 %
     Extraction speed 5.9 X
     Range quality 100.0 %
     Test CRC 8C2B0621
     Copy CRC 8C2B0621
     Copy OK
No errors occurred
AccurateRip summary
Track  1  not present in database
Track  2  not present in database
Track  3  not present in database
Track  4  not present in database
Track  5  not present in database
Track  6  not present in database
Track  7  not present in database
Track  8  not present in database
Track  9  not present in database
Track 10  not present in database
Track 11  not present in database
Track 12  not present in database
None of the tracks are present in the AccurateRip database
End of status report

CD 2 - 2015 - The Legend Of Valley Doom Part 2

Exact Audio Copy V1.3 from 2. September 2016
EAC extraction logfile from 1. February 2019, 12:04
Marius Danielsen's Legend Of Valley Doom / Legend of Valley Doom Part 2
Used drive  : HP      DVD Writer 1170d   Adapter: 1  ID: 1
Read mode               : Secure
Utilize accurate stream : Yes
Defeat audio cache      : Yes
Make use of C2 pointers : No
Read offset correction                      : 6
Overread into Lead-In and Lead-Out          : No
Fill up missing offset samples with silence : Yes
Delete leading and trailing silent blocks   : No
Null samples used in CRC calculations       : Yes
Used interface                              : Native Win32 interface for Win NT & 2000
Used output format              : User Defined Encoder
Selected bitrate                : 1024 kBit/s
Quality                         : High
Add ID3 tag                     : No
Command line compressor         : C:\Program Files (x86)\Exact Audio Copy\Flac\flac.exe
Additional command line options : -V -8 -T "Date=%year%" -T "Genre=%genre%" %source%
TOC of the extracted CD
     Track |   Start  |  Length  | Start sector | End sector
    ---------------------------------------------------------
        1  |  0:00.00 |  3:38.00 |         0    |    16349
        2  |  3:38.00 |  6:49.01 |     16350    |    47025
        3  | 10:27.01 |  2:28.74 |     47026    |    58199
        4  | 12:56.00 |  5:52.66 |     58200    |    84665
        5  | 18:48.66 |  6:08.00 |     84666    |   112265
        6  | 24:56.66 |  7:15.27 |    112266    |   144917
        7  | 32:12.18 |  6:19.03 |    144918    |   173345
        8  | 38:31.21 |  6:23.55 |    173346    |   202125
        9  | 44:55.01 |  6:28.09 |    202126    |   231234
       10  | 51:23.10 |  9:22.65 |    231235    |   273449
       11  | 60:46.00 |  7:56.18 |    273450    |   309167
       12  | 68:42.18 |  3:33.57 |    309168    |   325199
       13  | 72:16.00 |  5:50.66 |    325200    |   351515
Range status and errors
Selected range
     Filename C:\EAC\ Marius Danielsen's Legend Of Valley Doom - Legend of Valley Doom Part 2.wav
     Peak level 98.8 %
     Extraction speed 8.1 X
     Range quality 99.9 %
     Test CRC 91B177B4
     Copy CRC 91B177B4
     Copy OK
No errors occurred
AccurateRip summary
Track  1  accurately ripped (confidence 1)  [9AFFF8A3]  (AR v2)
Track  2  accurately ripped (confidence 1)  [71FC09E8]  (AR v2)
Track  3  accurately ripped (confidence 1)  [623FF1E8]  (AR v2)
Track  4  accurately ripped (confidence 1)  [3306FB25]  (AR v2)
Track  5  accurately ripped (confidence 1)  [89A9DD8D]  (AR v2)
Track  6  accurately ripped (confidence 1)  [CED301A5]  (AR v2)
Track  7  accurately ripped (confidence 1)  [7A629709]  (AR v2)
Track  8  accurately ripped (confidence 1)  [838F166A]  (AR v2)
Track  9  accurately ripped (confidence 1)  [6DED09D2]  (AR v2)
Track 10  accurately ripped (confidence 1)  [FA57DF21]  (AR v2)
Track 11  accurately ripped (confidence 1)  [A60F855C]  (AR v2)
Track 12  accurately ripped (confidence 1)  [30967036]  (AR v2)
Track 13  accurately ripped (confidence 1)  [0E8DDD25]  (AR v2)
All tracks accurately ripped
End of status report

Индексная карта (non-compilant .cue)

CD 1 - 2015 - The Legend Of Valley Doom Part 1

REM DATE 2015
REM DISCID 920F2B0C
REM COMMENT "ExactAudioCopy v1.1"
PERFORMER "Marius Danielsen's Legend Of Valley Doom"
TITLE "The Legend Of Valley Doom Part 1"
FILE "Marius Danielsen's Legend Of Valley Doom - The Legend Of Valley Doom Part 1.flac" WAVE
  TRACK 01 AUDIO
    TITLE "Intro"
    PERFORMER "Marius Danielsen's Legend Of Valley Doom"
    INDEX 01 00:00:00
  TRACK 02 AUDIO
    TITLE "The Battle of Bargor-Zun"
    PERFORMER "Marius Danielsen's Legend Of Valley Doom"
    INDEX 01 01:03:48
  TRACK 03 AUDIO
    TITLE "Prophecy of The Warrior King"
    PERFORMER "Marius Danielsen's Legend Of Valley Doom"
    INDEX 01 08:39:36
  TRACK 04 AUDIO
    TITLE "Chamber of Wisdom"
    PERFORMER "Marius Danielsen's Legend Of Valley Doom"
    INDEX 01 13:50:33
  TRACK 05 AUDIO
    TITLE "Mirror of Truth"
    PERFORMER "Marius Danielsen's Legend Of Valley Doom"
    INDEX 01 19:54:56
  TRACK 06 AUDIO
    TITLE "Haunting My Dreams"
    PERFORMER "Marius Danielsen's Legend Of Valley Doom"
    INDEX 01 25:20:21
  TRACK 07 AUDIO
    TITLE "The Legend of Valley Doom"
    PERFORMER "Marius Danielsen's Legend Of Valley Doom"
    INDEX 01 29:18:19
  TRACK 08 AUDIO
    TITLE "Lost In A Dream"
    PERFORMER "Marius Danielsen's Legend Of Valley Doom"
    INDEX 01 43:41:50
  TRACK 09 AUDIO
    TITLE "Raise Your Shields"
    PERFORMER "Marius Danielsen's Legend Of Valley Doom"
    INDEX 01 48:41:61
  TRACK 10 AUDIO
    TITLE "Free As the Wind"
    PERFORMER "Marius Danielsen's Legend Of Valley Doom"
    INDEX 01 53:20:09
  TRACK 11 AUDIO
    TITLE "Fallen Heroes of Our Land"
    PERFORMER "Marius Danielsen's Legend Of Valley Doom"
    INDEX 01 56:47:01
  TRACK 12 AUDIO
    TITLE "Outro"
    PERFORMER "Marius Danielsen's Legend Of Valley Doom"
    INDEX 01 62:05:43

CD 2 - 2015 - The Legend Of Valley Doom Part 2

REM DATE 2018
REM DISCID BC124E0D
REM COMMENT "ExactAudioCopy v1.3"
PERFORMER "Marius Danielsen's Legend Of Valley Doom"
TITLE "Legend of Valley Doom Part 2"
FILE "Marius Danielsen's Legend Of Valley Doom - Legend of Valley Doom Part 2.flac" WAVE
  TRACK 01 AUDIO
    TITLE "King Thorgan's Hymn"
    PERFORMER "Marius Danielsen's Legend Of Valley Doom"
    FLAGS DCP
    INDEX 01 00:00:00
  TRACK 02 AUDIO
    TITLE "Rise of the Dark Empire"
    PERFORMER "Marius Danielsen's Legend Of Valley Doom"
    FLAGS DCP
    INDEX 00 03:36:00
    INDEX 01 03:38:00
  TRACK 03 AUDIO
    TITLE "Gates of Eunomia"
    PERFORMER "Marius Danielsen's Legend Of Valley Doom"
    FLAGS DCP
    INDEX 00 10:25:01
    INDEX 01 10:27:01
  TRACK 04 AUDIO
    TITLE "Tower of Knowledge"
    PERFORMER "Marius Danielsen's Legend Of Valley Doom"
    FLAGS DCP
    INDEX 00 12:54:00
    INDEX 01 12:56:00
  TRACK 05 AUDIO
    TITLE "Visions of the Night"
    PERFORMER "Marius Danielsen's Legend Of Valley Doom"
    FLAGS DCP
    INDEX 00 18:46:66
    INDEX 01 18:48:66
  TRACK 06 AUDIO
    TITLE "Crystal Mountains"
    PERFORMER "Marius Danielsen's Legend Of Valley Doom"
    FLAGS DCP
    INDEX 00 24:54:66
    INDEX 01 24:56:66
  TRACK 07 AUDIO
    TITLE "By the Dragon's Breath"
    PERFORMER "Marius Danielsen's Legend Of Valley Doom"
    FLAGS DCP
    INDEX 00 32:10:18
    INDEX 01 32:12:18
  TRACK 08 AUDIO
    TITLE "Under the Silver Moon"
    PERFORMER "Marius Danielsen's Legend Of Valley Doom"
    FLAGS DCP
    INDEX 00 38:29:21
    INDEX 01 38:31:21
  TRACK 09 AUDIO
    TITLE "Angel of Light"
    PERFORMER "Marius Danielsen's Legend Of Valley Doom"
    FLAGS DCP
    INDEX 00 44:53:01
    INDEX 01 44:55:01
  TRACK 10 AUDIO
    TITLE "Princess Lariana's Forest"
    PERFORMER "Marius Danielsen's Legend Of Valley Doom"
    FLAGS DCP
    INDEX 00 51:21:10
    INDEX 01 51:23:10
  TRACK 11 AUDIO
    TITLE "Temple of the Ancient God"
    PERFORMER "Marius Danielsen's Legend Of Valley Doom"
    FLAGS DCP
    INDEX 00 60:44:00
    INDEX 01 60:46:00
  TRACK 12 AUDIO
    TITLE "We Stand Together"
    PERFORMER "Marius Danielsen's Legend Of Valley Doom"
    FLAGS DCP
    INDEX 00 68:40:18
    INDEX 01 68:42:18
  TRACK 13 AUDIO
    TITLE "Tower of Knowledge (Bonus Track Vinny Appice Version)"
    PERFORMER "Marius Danielsen's Legend Of Valley Doom"
    FLAGS DCP
    INDEX 00 72:14:00
    INDEX 01 72:16:00
-

для ознакомления:

http://www.youtube.com/watch?v=rw8rFYfGZGM
--

[Цитировать]

копирайд с Арии какой то )


Показать сообщения:    

Текущее время: 25-Апр 21:35

Часовой пояс: UTC + 3


Вы не можете начинать темы
Вы не можете отвечать на сообщения
Вы не можете редактировать свои сообщения
Вы не можете удалять свои сообщения
Вы не можете голосовать в опросах
Вы не можете прикреплять файлы к сообщениям
Вы не можете скачивать файлы

!ВНИМАНИЕ!
Сайт не предоставляет электронные версии произведений, а занимается лишь коллекционированием и каталогизацией ссылок, присылаемых и публикуемых на форуме нашими читателями. Если вы являетесь правообладателем какого-либо представленного материала и не желаете, чтобы ссылка на него находилась в нашем каталоге, свяжитесь с нами, и мы незамедлительно удалим ее. Файлы для обмена на трекере предоставлены пользователями сайта, и администрация не несет ответственности за их содержание. Просьба не заливать файлы, защищенные авторскими правами, а также файлы нелегального содержания!