🚢 Приветствуем Вас на нашем трекере..🚢...Наш Девиз...Лучшее уже тут...☏...Присоединяйтесь...☏

Статистика раздачи | Обновить пиров
Нет
 
   
 
 

[Цитировать]

-Tobias Sammet's Avantasia - The Metal Opera 2001 (Japanese Edition)--
Год издания: 2019
Страна: Germany
Жанр: Symphonic, Power Metal
Продолжительность: 01:03:21-Лейбл издания: Avalon
Страна-выпуска диска: Japan
Номер по каталогу: MICP-30098-Формат: FLAC
Битрейт аудио: Lossless
Тип рипа: image +.cue
Наличие сканов в содержимом раздачи: да
-

Трэклист


01. Prelude (1:11)
02. Reach Out for the Light (6:33)
03. Serpents in Paradise (6:17)
04. Malleus Maleficarum (1:43)
05. Breaking Away (4:36)
06. Farewell (6:32)
07. The Glory of Rome (5:29)
08. In Nomine Patris (1:04)
09. Avantasia (5:32)
10. A New Dimension (1:39)
11. Inside (2:24)
12. Sign of the Cross (6:26)
13. The Tower (9:45)
14. Avantasia (radio single) (4:10)
-

Лог создания рипа

Exact Audio Copy V1.3 from 2. September 2016
EAC extraction logfile from 26. January 2019, 11:28
Avantasia / The Metal Opera - Japan SHM-CD (MICP-30098) PaperSleeve Ltd. Ed.
Used drive  : ASUS    DRW-24D5MT   Adapter: 1  ID: 0
Read mode               : Secure
Utilize accurate stream : Yes
Defeat audio cache      : Yes
Make use of C2 pointers : No
Read offset correction                      : 6
Overread into Lead-In and Lead-Out          : No
Fill up missing offset samples with silence : Yes
Delete leading and trailing silent blocks   : No
Null samples used in CRC calculations       : Yes
Used interface                              : Native Win32 interface for Win NT & 2000
Used output format              : User Defined Encoder
Selected bitrate                : 768 kBit/s
Quality                         : High
Add ID3 tag                     : No
Command line compressor         : C:\Program Files (x86)\Exact Audio Copy\FLAC\FLAC.EXE
Additional command line options : -6 -V -T "ARTIST=%artist%" -T "TITLE=%title%" -T "ALBUM=%albumtitle%" -T "DATE=%year%" -T "TRACKNUMBER=%tracknr%" -T "GENRE=%genre%" -T "COMMENT=%comment%" -T "BAND=%albuminterpret%" -T "ALBUMARTIST=%albuminterpret%" -T "COMPOSER=%composer%" %haslyrics%--tag-from-file=LYRICS="%lyricsfile%"%haslyrics% -T "DISCNUMBER=%cdnumber%" -T "TOTALDISCS=%totalcds%" -T "TOTALTRACKS=%numtracks%" %hascover%--picture="%coverfile%"%hascover% %source% -o %dest%
TOC of the extracted CD
     Track |   Start  |  Length  | Start sector | End sector
    ---------------------------------------------------------
        1  |  0:00.00 |  1:11.30 |         0    |     5354
        2  |  1:11.30 |  6:32.50 |      5355    |    34804
        3  |  7:44.05 |  6:16.57 |     34805    |    63061
        4  | 14:00.62 |  1:42.38 |     63062    |    70749
        5  | 15:43.25 |  4:35.40 |     70750    |    91414
        6  | 20:18.65 |  6:32.30 |     91415    |   120844
        7  | 26:51.20 |  5:29.12 |    120845    |   145531
        8  | 32:20.32 |  1:04.05 |    145532    |   150336
        9  | 33:24.37 |  5:31.40 |    150337    |   175201
       10  | 38:56.02 |  1:39.20 |    175202    |   182646
       11  | 40:35.22 |  2:23.73 |    182647    |   193444
       12  | 42:59.20 |  6:26.25 |    193445    |   222419
       13  | 49:25.45 |  9:45.15 |    222420    |   266309
       14  | 59:10.60 |  4:10.11 |    266310    |   285070
Range status and errors
Selected range
     Filename E:\Música\EAC\Avantasia\Avantasia - The Metal Opera - Japan SHM-CD (MICP-30098) PaperSleeve Ltd. Ed..wav
     Peak level 98.8 %
     Extraction speed 6.0 X
     Range quality 100.0 %
     Test CRC AE085CD5
     Copy CRC AE085CD5
     Copy OK
No errors occurred
AccurateRip summary
Track  1  not present in database
Track  2  not present in database
Track  3  not present in database
Track  4  not present in database
Track  5  not present in database
Track  6  not present in database
Track  7  not present in database
Track  8  not present in database
Track  9  not present in database
Track 10  not present in database
Track 11  not present in database
Track 12  not present in database
Track 13  not present in database
Track 14  not present in database
None of the tracks are present in the AccurateRip database
End of status report

Индексная карта (non-compilant .cue)

REM GENRE "Heavy Metal"
REM DATE 2008
REM DISCID BB0ED80E
REM COMMENT "ExactAudioCopy v1.3"
PERFORMER "Avantasia"
TITLE "The Metal Opera - Japan SHM-CD (MICP-30098) PaperSleeve Ltd. Ed."
REM COMPOSER ""
FILE "Avantasia - The Metal Opera - Japan SHM-CD (MICP-30098) PaperSleeve Ltd. Ed..flac" WAVE
  TRACK 01 AUDIO
    TITLE "Prelude"
    PERFORMER "Avantasia"
    REM COMPOSER ""
    INDEX 01 00:00:00
  TRACK 02 AUDIO
    TITLE "Reach Out for the Light"
    PERFORMER "Avantasia"
    REM COMPOSER ""
    INDEX 01 01:11:30
  TRACK 03 AUDIO
    TITLE "Serpents in Paradise"
    PERFORMER "Avantasia"
    REM COMPOSER ""
    INDEX 01 07:44:05
  TRACK 04 AUDIO
    TITLE "Malleus Maleficarum"
    PERFORMER "Avantasia"
    REM COMPOSER ""
    INDEX 00 13:58:74
    INDEX 01 14:00:62
  TRACK 05 AUDIO
    TITLE "Breaking Away"
    PERFORMER "Avantasia"
    REM COMPOSER ""
    INDEX 01 15:43:25
  TRACK 06 AUDIO
    TITLE "Farewell"
    PERFORMER "Avantasia"
    REM COMPOSER ""
    INDEX 00 20:16:56
    INDEX 01 20:18:65
  TRACK 07 AUDIO
    TITLE "The Glory of Rome"
    PERFORMER "Avantasia"
    REM COMPOSER ""
    INDEX 00 26:49:17
    INDEX 01 26:51:20
  TRACK 08 AUDIO
    TITLE "In Nomine Patris"
    PERFORMER "Avantasia"
    REM COMPOSER ""
    INDEX 00 32:17:32
    INDEX 01 32:20:32
  TRACK 09 AUDIO
    TITLE "Avantasia"
    PERFORMER "Avantasia"
    REM COMPOSER ""
    INDEX 00 33:23:45
    INDEX 01 33:24:37
  TRACK 10 AUDIO
    TITLE "A New Dimension"
    PERFORMER "Avantasia"
    REM COMPOSER ""
    INDEX 00 38:53:65
    INDEX 01 38:56:02
  TRACK 11 AUDIO
    TITLE "Inside"
    PERFORMER "Avantasia"
    REM COMPOSER ""
    INDEX 00 40:34:38
    INDEX 01 40:35:22
  TRACK 12 AUDIO
    TITLE "Sign of the Cross"
    PERFORMER "Avantasia"
    REM COMPOSER ""
    INDEX 00 42:58:55
    INDEX 01 42:59:20
  TRACK 13 AUDIO
    TITLE "The Tower"
    PERFORMER "Avantasia"
    REM COMPOSER ""
    INDEX 00 49:22:45
    INDEX 01 49:25:45
  TRACK 14 AUDIO
    TITLE "Avantasia (radio single)"
    PERFORMER "Avantasia"
    REM COMPOSER ""
    INDEX 00 59:08:60
    INDEX 01 59:10:60
--


Показать сообщения:    

Текущее время: 24-Авг 15:10

Часовой пояс: UTC + 3


Вы не можете начинать темы
Вы не можете отвечать на сообщения
Вы не можете редактировать свои сообщения
Вы не можете удалять свои сообщения
Вы не можете голосовать в опросах
Вы не можете прикреплять файлы к сообщениям
Вы не можете скачивать файлы

!ВНИМАНИЕ!
Сайт не предоставляет электронные версии произведений, а занимается лишь коллекционированием и каталогизацией ссылок, присылаемых и публикуемых на форуме нашими читателями. Если вы являетесь правообладателем какого-либо представленного материала и не желаете, чтобы ссылка на него находилась в нашем каталоге, свяжитесь с нами, и мы незамедлительно удалим ее. Файлы для обмена на трекере предоставлены пользователями сайта, и администрация не несет ответственности за их содержание. Просьба не заливать файлы, защищенные авторскими правами, а также файлы нелегального содержания!