㋛ Приветствуем Вас на нашем трекере..㋛...Наш Девиз...Лучшее уже тут...☏...Присоединяйтесь...☏

Статистика раздачи | Обновить пиров
Скачал: [ 1 ]
 
   
 
 

[Цитировать]

-Lancia - Lancia--
Год издания: 1992
Страна: USA
Жанр: Hard Rock
Продолжительность: 00:48:45-Лейбл издания: Pony Canyon Inc.
Страна-выпуска диска: Japan
Номер по каталогу: PCCY-00512-Формат: FLAC
Битрейт аудио: Lossless
Тип рипа: image +.cue
Наличие сканов в содержимом раздачи: да
-

Трэклист


01. You Can't Keep A Goodman Down (4:21)
02. Pain Sweet Symphony (4:39)
03. Bad Attitude (4:19)
04. Still In Love (4:04)
05. Sweet Melody (3:51)
06. Jimmy (4:21)
07. Goodbye (4:22)
08. Tattooed Love Toy (4:43)
09. The Promise (5:06)
10. Poetry In Motion (4:14)
11. Wrecking Ball (4:46)
-

Лог создания рипа

Exact Audio Copy V1.3 from 2. September 2016
Отчёт EAC об извлечении, выполненном 6. января 2019, 17:38
Lancia / Lancia (PCCY-00512)
Дисковод: PLEXTOR BD-R  PX-B950SA   Adapter: 1  ID: 0
Режим чтения                 : Достоверность
Использование точного потока : Да
Отключение кэша аудио        : Да
Использование указателей C2  : Нет
Коррекция смещения при чтении                     : 6
Способность читать области Lead-in и Lead-out     : Нет
Заполнение пропущенных сэмплов тишиной            : Да
Удаление блоков с тишиной в начале и конце        : Нет
При вычислениях CRC использовались нулевые сэмплы : Да
Интерфейс                                         : Встроенный Win32-интерфейс для Win NT/2000
Выходной формат          : Пользовательский кодировщик
Выбранный битрейт        : 1024 kBit/s
Качество                 : Высокий
Добавление ID3-тега      : Нет
Утилита сжатия           : C:\Program Files (x86)\Exact Audio Copy\FLAC\FLAC.EXE
Дополнительные параметры : -6 -V -T "ARTIST=%artist%" -T "TITLE=%title%" -T "ALBUM=%albumtitle%" -T "DATE=%year%" -T "TRACKNUMBER=%tracknr%" -T "GENRE=%genre%" -T "COMMENT=%comment%" -T "BAND=%albuminterpret%" -T "ALBUMARTIST=%albuminterpret%" -T "COMPOSER=%composer%" %haslyrics%--tag-from-file=LYRICS="%lyricsfile%"%haslyrics% -T "DISCNUMBER=%cdnumber%" -T "TOTALDISCS=%totalcds%" -T "TOTALTRACKS=%numtracks%" %hascover%--picture="%coverfile%"%hascover% %source% -o %dest%
TOC извлечённого CD
     Трек |   Старт  | Длительность | Начальный сектор | Конечный сектор
    ---------------------------------------------------------------------
       1  |  0:00.00 |    4:20.57   |           0      |      19556
       2  |  4:20.57 |    4:38.43   |       19557      |      40449
       3  |  8:59.25 |    4:18.70   |       40450      |      59869
       4  | 13:18.20 |    4:03.72   |       59870      |      78166
       5  | 17:22.17 |    3:51.00   |       78167      |      95491
       6  | 21:13.17 |    4:21.28   |       95492      |     115094
       7  | 25:34.45 |    4:21.47   |      115095      |     134716
       8  | 29:56.17 |    4:43.25   |      134717      |     155966
       9  | 34:39.42 |    5:06.08   |      155967      |     178924
      10  | 39:45.50 |    4:13.67   |      178925      |     197966
      11  | 43:59.42 |    4:45.38   |      197967      |     219379
Характеристики диапазона извлечения и сообщения об ошибках
Выбранный диапазон
     Имя файла G:\RIP\Lancia 1992 Japanese Pressing FLAC by alzal\Lancia - Lancia (PCCY-00512).wav
     Пиковый уровень 95.5 %
     Скорость извлечения 9.3 X
     Качество диапазона 100.0 %
     CRC теста 754FEF53
     CRC копии 754FEF53
     Копирование... OK
Ошибок не произошло
AccurateRip: сводка
Трек  1  отсутствует в базе данных
Трек  2  отсутствует в базе данных
Трек  3  отсутствует в базе данных
Трек  4  отсутствует в базе данных
Трек  5  отсутствует в базе данных
Трек  6  отсутствует в базе данных
Трек  7  отсутствует в базе данных
Трек  8  отсутствует в базе данных
Трек  9  отсутствует в базе данных
Трек 10  отсутствует в базе данных
Трек 11  отсутствует в базе данных
Ни одного трека нет в базе AccurateRip
Конец отчёта

Индексная карта (non-compilant .cue)

REM GENRE "Hard Rock"
REM DATE 1992
REM DISCID 8A0B6D0B
REM COMMENT "ExactAudioCopy v1.3"
PERFORMER "Lancia"
TITLE "Lancia (PCCY-00512)"
REM COMPOSER ""
FILE "Lancia - Lancia (PCCY-00512).flac" WAVE
  TRACK 01 AUDIO
    TITLE "You Can't Keep A Goodman Down"
    PERFORMER "Lancia"
    REM COMPOSER ""
    INDEX 01 00:00:00
  TRACK 02 AUDIO
    TITLE "Pain Sweet Symphony"
    PERFORMER "Lancia"
    REM COMPOSER ""
    INDEX 01 04:20:57
  TRACK 03 AUDIO
    TITLE "Bad Attitude"
    PERFORMER "Lancia"
    REM COMPOSER ""
    INDEX 01 08:59:25
  TRACK 04 AUDIO
    TITLE "Still In Love"
    PERFORMER "Lancia"
    REM COMPOSER ""
    INDEX 01 13:18:20
  TRACK 05 AUDIO
    TITLE "Sweet Melody"
    PERFORMER "Lancia"
    REM COMPOSER ""
    INDEX 01 17:22:17
  TRACK 06 AUDIO
    TITLE "Jimmy"
    PERFORMER "Lancia"
    REM COMPOSER ""
    INDEX 00 21:11:67
    INDEX 01 21:13:17
  TRACK 07 AUDIO
    TITLE "Goodbye"
    PERFORMER "Lancia"
    REM COMPOSER ""
    INDEX 01 25:34:45
  TRACK 08 AUDIO
    TITLE "Tattooed Love Toy"
    PERFORMER "Lancia"
    REM COMPOSER ""
    INDEX 01 29:56:17
  TRACK 09 AUDIO
    TITLE "The Promise"
    PERFORMER "Lancia"
    REM COMPOSER ""
    INDEX 01 34:39:42
  TRACK 10 AUDIO
    TITLE "Poetry In Motion"
    PERFORMER "Lancia"
    REM COMPOSER ""
    INDEX 01 39:45:50
  TRACK 11 AUDIO
    TITLE "Wrecking Ball"
    PERFORMER "Lancia"
    REM COMPOSER ""
    INDEX 01 43:59:42
-

для ознакомления:

http://www.youtube.com/watch?v=Cgenv7pkNys&t=61s
--


Показать сообщения:    

Текущее время: 18-Фев 05:50

Часовой пояс: UTC + 3


Вы не можете начинать темы
Вы не можете отвечать на сообщения
Вы не можете редактировать свои сообщения
Вы не можете удалять свои сообщения
Вы не можете голосовать в опросах
Вы не можете прикреплять файлы к сообщениям
Вы не можете скачивать файлы

!ВНИМАНИЕ!
Сайт не предоставляет электронные версии произведений, а занимается лишь коллекционированием и каталогизацией ссылок, присылаемых и публикуемых на форуме нашими читателями. Если вы являетесь правообладателем какого-либо представленного материала и не желаете, чтобы ссылка на него находилась в нашем каталоге, свяжитесь с нами, и мы незамедлительно удалим ее. Файлы для обмена на трекере предоставлены пользователями сайта, и администрация не несет ответственности за их содержание. Просьба не заливать файлы, защищенные авторскими правами, а также файлы нелегального содержания!