🚢 Приветствуем Вас на нашем трекере..🚢...Наш Девиз...Лучшее уже тут...☏...Присоединяйтесь...☏

Статистика раздачи | Обновить пиров
Нет
 
   
 
 

Анастасия Кучина | 7 цветов радуги в фотографии, видеокурс (2017) HDTV -- Автор (режиссер): Анастасия Кучина
Производство: журнал PhotoCASA, Анастася Кучина
Жанр: Ретушь фото
Описание:
Видеокурс "7 цветов радуги в фотографии" от журнала PhotoCASA и Анастасии Кучиной научит Вас РАБОТАТЬ С ЦВЕТОМ В ФОТОГРАФИИ.
Автор расскажет как создавать интересные кадры и обрабатывать их.
Курс состоит из 7 продолжительных видеоуроков по авторской обработке с преобладанием каждого из цветов радуги и применением интересных эффектов в Фотошопе.
В уроки включена и необходимая теоретическая часть.
+ Бонус из 3 уроков с исходниками и файлами PSD
Продолжительность: 06:43:19
Качество видео: HDTV
Видео: AVC/H.264, 1280x720, ~2179 Kbps
Аудио: MP3, 2 ch, 92,3 Kbps

Mediainfo:

Видео
Идентификатор : 1
Формат : AVC
Формат/Информация : Advanced Video Codec
Профиль формата : High@L4.1
Настройки формата : CABAC / 1 Ref Frames
Параметр CABAC формата : Да
Параметр RefFrames формата : 1 кадр
Параметр GOP формата : M=1, N=25
Идентификатор кодека : avc1
Идентификатор кодека/Информация : Advanced Video Coding
Продолжительность : 1 ч. 37 м.
Битрейт : 2084 Кбит/сек
Ширина : 1280 пикселей
Высота : 720 пикселей
Соотношение сторон : 16:9
Режим частоты кадров : Постоянный
Частота кадров : 25,000 кадров/сек
Цветовое пространство : YUV
Субдискретизация насыщенности : 4:2:0
Битовая глубина : 8 бит
Тип развёртки : Прогрессивная
Бит/(Пиксели*Кадры) : 0.090
Размер потока : 1,42 Гбайт (96%)
Язык : English
Дата кодирования : UTC 2017-08-10 16:28:23
Дата пометки : UTC 2017-08-10 17:14:40
Аудио
Идентификатор : 2
Формат : MPEG Audio
Версия формата : Version 1
Профиль формата : Layer 3
Идентификатор кодека : mp4a-6B
Продолжительность : 1 ч. 37 м.
Продолжительность оригинала : 1 ч. 37 м.
Вид битрейта : Переменный
Битрейт : 92,3 Кбит/сек
Каналы : 2 канала
Частота : 44,1 КГц
Метод сжатия : С потерями
Размер потока : 64,2 Мбайт (4%)
Размер потока оригинала : 64,2 Мбайт (4%)
Библиотека кодирования : LAME3.98.2
Язык : English
Дата кодирования : UTC 2017-08-10 16:28:23
Дата пометки : UTC 2017-08-10 17:14:39

Дополнительная информация:

Бонус из 3 уроков с исходниками и файлами PSD находится в папке \Bonus
Скриншоты:
Время раздачи: 24\7 до появления первых 5 скачавших,далее с раздачи ухожу!.


Показать сообщения:    

Текущее время: 23-Авг 10:15

Часовой пояс: UTC + 3


Вы не можете начинать темы
Вы не можете отвечать на сообщения
Вы не можете редактировать свои сообщения
Вы не можете удалять свои сообщения
Вы не можете голосовать в опросах
Вы не можете прикреплять файлы к сообщениям
Вы не можете скачивать файлы

!ВНИМАНИЕ!
Сайт не предоставляет электронные версии произведений, а занимается лишь коллекционированием и каталогизацией ссылок, присылаемых и публикуемых на форуме нашими читателями. Если вы являетесь правообладателем какого-либо представленного материала и не желаете, чтобы ссылка на него находилась в нашем каталоге, свяжитесь с нами, и мы незамедлительно удалим ее. Файлы для обмена на трекере предоставлены пользователями сайта, и администрация не несет ответственности за их содержание. Просьба не заливать файлы, защищенные авторскими правами, а также файлы нелегального содержания!