🚢 Приветствуем Вас на нашем трекере..🚢...Наш Девиз...Лучшее уже тут...☏...Присоединяйтесь...☏

Статистика раздачи | Обновить пиров
Качаю: [ 1 ]
Скачал: [ 4 ]
 
   
 
 

[Цитировать]

-Scorpions - Live in Munich 2012 (2012) Blu-Ray Remux 1080i--
Год выпуска: 2012
Страна: Germany
Выпущено: UK, Eagle Rock
Жанр:Rock, Hard Rock
Режиссер: Jost-Arend Bosenberg, Christoph Bicker
Продолжительность: 01:49:21
-Качество видео: Blu-Ray Remux (1080i)
Контейнер: MKV
Стандарт разрешения: 1080i
Видео кодек: MPEG4 AVC
Аудио кодек: DTS-HD MA
Видео: MPEG-4 AVC, 34995 Кбит/с , 1920x1080, 29.970 кадр/с
Аудио: Английский (DTS-HD MA, 6 ch, 4663 Кбит/с), (LPCM, 2 ch, 2304 Кбит/с), (AC3, 6 ch, 640 Кбит/с), (DTS, 6 ch, 768 Кбит/с), (AC3, 2 ch, 640 Кбит/с)
Аудио 1: Английский DTS-HD MA 5.1, 4663 Кбит/с - Оригинал
Аудио 2: Английский LPCM, 2 ch, 2304 Кбит/с - Оригинал
Аудио 3: Английский DTS , 5.1 768 Кбит/с - Оригинал
Аудио 4: Английский AC3 5.1, 640 Кбит/с - Оригинал
Аудио 5: Английский AC3 2.0, 640 Кбит/с - Оригинал
Аудио 6: LPCM, 2 ch, 2304 Кбит/с - Оригинал
-И опять Eagle Rock радует неплохим концертом очередных нержавеющих дедушек. Фанатам определённо будет в кайф, ибо концерт хорош, — выступление в Олимпийском Дворце Мюнхена 17 декабря 2012 года во время мирового турне "Sting In The Tale". В общем, "скорпы", как всегда, верны себе: добротно выступили, спели кучу хитов. Ничего супер-пупер-особенного, но смотрится хорошо.Диск сделан предельно просто, — маленькая бумажная раскладушка СД-формата, никаких допов, никаких вкладок.

-

Трэклист


01. Sting In The Tail
02. Make It Real
03. Is There Anybody There?
04. The Zoo
05. Coast To Coast
06. Loving You Sunday Morning
07. We'll Burn The Sky
08. The Best Is Yet To Come
09. Send Me An Angel
10. Holiday
11. Raised On Rock
12. Tease Me Please Me
13. Hit Between The Eyes
14. Kottak Attack
15. Blackout
16. Big City Nights
17. Still Loving You
18. Wind Of Change
19. No One Like You
20. Rock You Like A Hurricane
21. When The Smoke Is Going Down
-

Состав группы:

Rudolf Schenker (rhythm guitar, lead guitar, backing vocals)
Klaus Meine (lead vocals, rhythm guitar, percussion)
Matthias Jabs (lead guitar, rhythm guitar, backing vocals)
James Kottak (drums, backing vocals)
Pawel Maciwoda (bass, backing vocals)

Media Info

General
Unique ID : 25977060239454377496864507877191568403 (0x138AFFF4166EC591498020B7C6E7CC13)
Complete name : D:\Downloads\Scorpions - Live in Munich (2012) Blu-Ray Remux 1080i.mkv
Format : Matroska
Format version : Version 4
File size : 33.1 GiB
Duration : 1 h 49 min
Overall bit rate mode : Variable
Overall bit rate : 43.3 Mb/s
Movie name : Scorpions - Live in Munich (2012) Blu-Ray Remux 1080i. thx: SPOMOPS
Encoded date : UTC 2019-09-14 12:11:57
Writing application : mkvmerge v25.0.0 ('Prog Noir') 64-bit
Writing library : libebml v1.3.6 + libmatroska v1.4.9
Video
ID : 1
Format : AVC
Format/Info : Advanced Video Codec
Format profile : High@L4.1
Format settings : CABAC / 4 Ref Frames
Format settings, CABAC : Yes
Format settings, RefFrames : 4 frames
Format settings, GOP : M=3, N=30
Codec ID : V_MPEG4/ISO/AVC
Duration : 1 h 49 min
Bit rate mode : Variable
Bit rate : 34.3 Mb/s
Maximum bit rate : 37.0 Mb/s
Width : 1 920 pixels
Height : 1 080 pixels
Display aspect ratio : 16:9
Frame rate mode : Constant
Frame rate : 29.970 (30000/1001) FPS
Color space : YUV
Chroma subsampling : 4:2:0
Bit depth : 8 bits
Scan type : MBAFF
Scan type, store method : Interleaved fields
Scan order : Top Field First
Bits/(Pixel*Frame) : 0.552
Stream size : 26.2 GiB (79%)
Language : English
Default : Yes
Forced : Yes
Audio #1
ID : 2
Format : DTS XLL
Format/Info : Digital Theater Systems
Commercial name : DTS-HD Master Audio
Codec ID : A_DTS
Duration : 1 h 49 min
Bit rate mode : Variable
Bit rate : 4 663 kb/s
Channel(s) : 6 channels
Channel layout : C L R Ls Rs LFE
Sampling rate : 48.0 kHz
Frame rate : 93.750 FPS (512 SPF)
Bit depth : 24 bits
Compression mode : Lossless
Stream size : 3.56 GiB (11%)
Language : English
Default : Yes
Forced : Yes
Audio #2
ID : 3
Format : PCM
Format settings : Little / Signed
Codec ID : A_PCM/INT/LIT
Duration : 1 h 49 min
Bit rate mode : Constant
Bit rate : 2 304 kb/s
Channel(s) : 2 channels
Sampling rate : 48.0 kHz
Frame rate : 200.000 FPS (240 SPF)
Bit depth : 24 bits
Stream size : 1.76 GiB (5%)
Language : English
Default : No
Forced : No
Audio #3
ID : 4
Format : DTS
Format/Info : Digital Theater Systems
Codec ID : A_DTS
Duration : 1 h 49 min
Bit rate mode : Constant
Bit rate : 768 kb/s
Channel(s) : 6 channels
Channel layout : C L R Ls Rs LFE
Sampling rate : 48.0 kHz
Frame rate : 93.750 FPS (512 SPF)
Bit depth : 24 bits
Compression mode : Lossy
Stream size : 601 MiB (2%)
Language : English
Default : No
Forced : No
Audio #4
ID : 5
Format : AC-3
Format/Info : Audio Coding 3
Commercial name : Dolby Digital
Codec ID : A_AC3
Duration : 1 h 49 min
Bit rate mode : Constant
Bit rate : 640 kb/s
Channel(s) : 6 channels
Channel layout : L R C LFE Ls Rs
Sampling rate : 48.0 kHz
Frame rate : 31.250 FPS (1536 SPF)
Bit depth : 16 bits
Compression mode : Lossy
Stream size : 501 MiB (1%)
Language : English
Service kind : Complete Main
Default : No
Forced : No
Audio #5
ID : 6
Format : AC-3
Format/Info : Audio Coding 3
Commercial name : Dolby Digital
Codec ID : A_AC3
Duration : 1 h 49 min
Bit rate mode : Constant
Bit rate : 640 kb/s
Channel(s) : 2 channels
Channel layout : L R
Sampling rate : 48.0 kHz
Frame rate : 31.250 FPS (1536 SPF)
Bit depth : 16 bits
Compression mode : Lossy
Stream size : 501 MiB (1%)
Language : English
Service kind : Complete Main
Default : No
Forced : No
Menu
00:00:00.000 : :Chapter 1
00:04:37.744 : :Chapter 2
00:08:28.808 : :Chapter 3
00:12:43.395 : :Chapter 4
00:18:47.326 : :Chapter 5
00:23:54.032 : :Chapter 6
00:28:05.483 : :Chapter 7
00:35:02.567 : :Chapter 8
00:40:35.866 : :Chapter 9
00:45:05.436 : :Chapter 10
00:51:57.314 : :Chapter 11
00:56:16.840 : :Chapter 12
01:01:45.735 : :Chapter 13
01:05:24.287 : :Chapter 14
01:11:48.837 : :Chapter 15
01:16:30.085 : :Chapter 16
01:22:31.413 : :Chapter 17
01:28:48.289 : :Chapter 18
01:34:24.525 : :Chapter 19
01:38:31.605 : :Chapter 20
01:45:23.183 : :Chapter 21
01:49:21.388 : :Chapter 22
-

Скриншоты

-

Дополнительные скриншоты

-
--


Показать сообщения:    

Текущее время: 20-Ноя 00:43

Часовой пояс: UTC + 3


Вы не можете начинать темы
Вы не можете отвечать на сообщения
Вы не можете редактировать свои сообщения
Вы не можете удалять свои сообщения
Вы не можете голосовать в опросах
Вы не можете прикреплять файлы к сообщениям
Вы не можете скачивать файлы

!ВНИМАНИЕ!
Сайт не предоставляет электронные версии произведений, а занимается лишь коллекционированием и каталогизацией ссылок, присылаемых и публикуемых на форуме нашими читателями. Если вы являетесь правообладателем какого-либо представленного материала и не желаете, чтобы ссылка на него находилась в нашем каталоге, свяжитесь с нами, и мы незамедлительно удалим ее. Файлы для обмена на трекере предоставлены пользователями сайта, и администрация не несет ответственности за их содержание. Просьба не заливать файлы, защищенные авторскими правами, а также файлы нелегального содержания!